<?xml version="1.0" standalone="no"?>
<!DOCTYPE svg PUBLIC "-//W3C//DTD SVG 1.1//EN" "http://www.w3.org/Graphics/SVG/1.1/DTD/svg11.dtd" >
<svg xmlns="http://www.w3.org/2000/svg">
<metadata>Generated by IcoMoon</metadata>
<defs>
<font id="icomoon" horiz-adv-x="1024">
<font-face units-per-em="1024" ascent="960" descent="-64" />
<missing-glyph horiz-adv-x="1024" />
<glyph unicode="&#x20;" horiz-adv-x="512" d="" />
<glyph unicode="&#xe900;" d="M697.988 591.742l43.028-23.904c8.204-4.558 5.986-16.792-3.266-18.364-60.324-10.25-104.476-51.23-117.286-64.338-2.576-2.636-6.416-3.59-9.944-2.522-46.61 14.096-99.19 83.798-99.19 83.798l-33.998 43.596 173.994 8.666z" />
<glyph unicode="&#xe901;" d="M511.328 751.736l20.41 38.552c2.052 3.876 0.906 8.674-2.678 11.204l-79.080 55.82c-3.188 2.25-7.492 2.1-10.532-0.348-69.386-55.87-68.114-109.228-68.114-109.228l1.166-24.236h130.496z" />
<glyph unicode="&#xe902;" d="M384.666 551.744l-22.666 28.262h-74.998l23-29.596s49.034-60.708 118.698-66.324c5.642-0.454 8.994 6.192 5.296 10.478z" />
<glyph unicode="&#xe903;" d="M1008.188 580.442c-11.272 27.584-37.744 76.458-84.686 79.608-1.052 0.070-1.884 0.916-1.904 1.972s0.778 1.932 1.828 2.044c46.786 4.952 71.368 54.808 81.576 82.804 2.906 7.968-4.49 15.862-12.63 13.524l-210.434-61.474v-77.124l214.148-55.354c8.222-2.022 15.31 6.148 12.102 14z" />
<glyph unicode="&#xe904;" d="M869.46 650.604c-72.376-36.596-629.072-184.726-844.288-22.78-13.5 10.16-13.52 26.978-0.24 37.518 19.92 15.82 78.016 38.258 159.534 55.938 16 3.48 32.918 6.78 50.618 9.8 171.154 29.22 416.266 33.22 634.076-65.996 6.1-2.8 6.28-11.44 0.3-14.48z" />
<glyph unicode="&#xe905;" d="M869.46 650.604c-72.378-36.598-629.076-184.734-844.288-22.78-13.5 10.16-13.52 26.978-0.24 37.518 9.94 7.88 29.398 17.44 56.538 27.218 173.274-121.936 550.28-56.938 736.792-6.3 17.1-6.48 34.078-13.52 50.898-21.18 6.1-2.796 6.28-11.436 0.3-14.476z" />
<glyph unicode="&#xe906;" d="M325.998 147.784l-43.028-23.904c-8.204-4.558-5.986-16.792 3.266-18.364 60.324-10.25 104.476-51.23 117.286-64.338 2.576-2.636 6.416-3.59 9.944-2.522 46.61 14.096 99.19 83.798 99.19 83.798l33.998 43.596-173.994 8.666z" />
<glyph unicode="&#xe907;" d="M512.658 307.778l-20.41 38.552c-2.052 3.876-0.906 8.674 2.678 11.204l79.080 55.82c3.188 2.25 7.492 2.1 10.532-0.348 69.386-55.87 68.114-109.228 68.114-109.228l-1.166-24.236h-130.496z" />
<glyph unicode="&#xe908;" d="M639.32 107.786l22.666 28.262h74.998l-23-29.596s-49.034-60.708-118.698-66.324c-5.642-0.454-8.994 6.192-5.296 10.478z" />
<glyph unicode="&#xe909;" d="M15.798 136.482c11.272 27.584 37.744 76.458 84.686 79.608 1.052 0.070 1.884 0.916 1.904 1.972s-0.778 1.932-1.828 2.044c-46.786 4.952-71.368 54.808-81.576 82.804-2.906 7.968 4.49 15.862 12.63 13.524l210.434-61.472v-77.124l-214.146-55.354c-8.224-2.024-15.312 6.148-12.104 13.998z" />
<glyph unicode="&#xe90a;" d="M154.526 206.646c72.376-36.596 629.072-184.726 844.288-22.778 13.5 10.16 13.52 26.978 0.24 37.518-19.92 15.82-78.016 38.258-159.534 55.938-16 3.48-32.918 6.78-50.618 9.8-171.154 29.218-416.264 33.218-634.076-65.998-6.1-2.8-6.28-11.44-0.3-14.48z" />
<glyph unicode="&#xe90b;" d="M154.526 206.646c72.378-36.598 629.076-184.732 844.288-22.778 13.5 10.16 13.52 26.978 0.24 37.518-9.94 7.88-29.398 17.44-56.538 27.218-173.274-121.936-550.28-56.938-736.792-6.3-17.1-6.48-34.078-13.52-50.898-21.18-6.1-2.798-6.28-11.438-0.3-14.478z" />
<glyph unicode="&#xe90c;" d="M16.154 615.834c63.156-47.522 158.564-73.31 283.838-76.822 34.486-40.118 88.928-72.208 143.856-70.254 12.558 0.43 19.058 15.266 10.84 24.788l-41.3 47.872c29.588 1.928 60.16 4.832 91.636 8.724 16.672-20.692 64.15-75.11 108.772-83.784 5.176-1.008 10.598 0.78 14.164 4.862 0.592 0.68 60.306 67.89 141.578 65.532 15.844-0.304 21.294 20.568 7.732 28.106l-47.854 26.586c19.902 4.856 38.514 9.736 55.438 14.484 0.038-0.010 207.61-54.040 207.65-54.050 20.136-4.95 37.406 15.070 29.572 34.238-9.482 23.204-28.080 58.238-58.958 76.702 30.146 19.638 47.392 55.364 55.98 78.914 7.082 19.426-10.878 38.818-30.928 33.060l-205.67-60.080c-77.304 25.084-160.59 40.702-249.084 46.69l11.578 21.87c5.564 10.514 2.432 23.614-7.284 30.474l-79.078 55.818c-8.61 6.082-20.37 5.704-28.592-0.916-54.010-43.492-68.464-86.502-72.314-107.714-167.11-11.866-305.2-54.52-342.118-83.84-20.964-16.648-20.768-45.218 0.546-61.26zM343.22 538.664c10.596 0.12 21.34 0.378 32.242 0.784l31.182-36.142c-26.332 7.47-48.382 22.618-63.424 35.358zM987.536 743.354c-10.652-25.64-31.354-60.738-65.67-64.37-20.642-2.158-20.066-32.518 0.63-33.902 34.406-2.308 56.422-36.498 68.060-61.7l-151.056 39.318c16.26 5.55 28.8 10.52 36.718 14.524 17.116 8.642 16.826 33.45-0.842 41.502-14.628 6.664-29.524 12.926-44.664 18.816zM445.226 842.308l70.67-49.882-15.486-29.252c-36.166 1.454-72.768 1.422-111.672-0.41 4.578 17.204 17.868 47.304 56.488 79.544zM848.466 657.85c-34.564-13.454-109.956-35.784-207.148-55.202-8.124-1.622-13.394-9.524-11.77-17.648 1.624-8.122 9.528-13.404 17.646-11.77 13.586 2.714 26.864 5.512 39.764 8.356 2.202-2.39 0.752-1.294 34.644-20.122-54.624-13.416-94.474-48.468-109.626-63.554-24.27 8.674-52.512 35.692-71.568 56.97 15.576 2.238 31.336 4.688 47.298 7.384 8.168 1.378 13.672 9.118 12.294 17.288-1.38 8.168-9.128 13.668-17.288 12.292-91.192-15.396-188.876-25.272-280.114-22.902 10.386 68.214-16.876 117.986-68.41 146.696 200.508 34.774 425.282 23.936 614.278-57.788zM34.266 653.604c17.818 14.15 70.676 34.46 145.030 51.154 10.9-2.382 54.252-13.806 78.42-48.93 15.606-22.682 20.542-51.468 14.724-85.626-104.848 6.086-184.842 29.418-238.25 69.604-5.766 4.342-5.356 9.484 0.076 13.798z" />
<glyph unicode="&#xe90d;" d="M150.71 656.68c0-12.612-10.203-22.836-22.79-22.836s-22.79 10.224-22.79 22.836c0 12.612 10.203 22.836 22.79 22.836s22.79-10.224 22.79-22.836z" />
<glyph unicode="&#xe90e;" d="M1008.378 233.134c-22.84 18.14-81.492 39.616-153.064 56.048-45.168 10.372-110.234 22.192-189.052 27.79-3.85 21.21-18.302 64.222-72.314 107.716-8.22 6.618-19.974 6.998-28.588 0.918l-79.080-55.822c-9.716-6.86-12.85-19.958-7.284-30.474l11.58-21.87c-88.496-5.988-171.78-21.606-249.086-46.69l-205.728 60.094c-19.916 5.724-37.964-13.606-30.866-33.076 8.586-23.55 25.834-59.276 55.978-78.912-30.876-18.464-49.476-53.5-58.956-76.702-6.904-16.892 5.732-34.984 23.456-34.984 5.328 0-11.808-3.922 214.010 54.858 16.756-4.728 35.262-9.63 55.21-14.536l-47.872-26.596c-13.658-7.59-7.96-28.54 7.732-28.106 80.992 2.412 140.998-64.872 141.578-65.534 3.578-4.098 9.006-5.864 14.164-4.862 44.546 8.664 91.942 62.914 108.69 83.684 30.098-3.7 60.812-6.676 91.68-8.666l-41.262-47.826c-3.772-4.37-4.7-10.52-2.386-15.808 3.914-8.954 12.032-9.066 18.144-9.066 74.69 0 128.804 58.558 138.926 70.33 41.76 1.182 80.52 4.86 115.55 10.978 8.16 1.424 13.62 9.194 12.194 17.354-1.426 8.162-9.19 13.62-17.356 12.194-25.572-4.466-53.29-7.572-82.832-9.308-5.812 34.148-0.874 62.93 14.73 85.606 24.168 35.122 67.52 46.548 78.42 48.93 74.354-16.692 127.212-37.002 145.032-51.152 5.43-4.312 5.846-9.454 0.076-13.798-26.22-19.73-59.41-35.6-98.652-47.174-7.946-2.342-12.486-10.684-10.144-18.628 2.344-7.946 10.688-12.488 18.63-10.144 42.698 12.592 79.104 30.078 108.204 51.976 21.3 16.030 21.512 44.604 0.538 61.258zM578.762 398.346c38.624-32.242 51.912-62.342 56.488-79.546-38.872 1.83-75.468 1.866-111.67 0.41l-15.486 29.252zM33.432 139.416c11.636 25.202 33.654 59.396 68.056 61.704 20.706 1.382 21.268 31.708 0.656 33.898-34.336 3.634-55.038 38.732-65.69 64.372l156.826-45.812c-15.14-5.89-30.036-12.152-44.666-18.816-17.428-7.942-18.14-32.756-0.852-41.494 7.23-3.656 19.888-8.652 37.008-14.46zM412.012 53.944c-15.152 15.088-54.994 50.144-109.628 63.558 33.72 18.732 32.384 17.684 34.604 20.074 44.538-9.89 94.248-19.304 146.494-26.788-19.034-21.256-47.202-48.184-71.47-56.844zM617.294 59.288l31.216 36.182c10.8-0.398 21.592-0.654 32.358-0.774-15.022-12.77-37.102-27.96-63.574-35.408zM721.386 124.98c-205.074-5.438-459.070 54.764-545.924 88.882 188.628 81.58 413.498 92.644 614.334 57.814-51.454-28.664-78.81-78.394-68.41-146.696z" />
<glyph unicode="&#xe90f;" d="M918.858 212.718c0-12.612-10.203-22.836-22.79-22.836s-22.79 10.224-22.79 22.836c0 12.612 10.203 22.836 22.79 22.836s22.79-10.224 22.79-22.836z" />
<glyph unicode="&#xe910;" d="M531.032 954.462c-11.988 7.384-26.302 7.384-38.288 0-63.55-39.16-113.146-108.096-131.498-194.394 32.068-15.308 59-36.822 81.746-63.328 15.404 15.64 31.784 29.108 50.83 40.844 11.314 6.972 24.822 6.97 36.132 0 19.034-11.73 35.416-25.194 50.83-40.844 24.622 28.692 52.136 49.192 81.746 63.328-18.35 86.29-67.944 155.23-131.498 194.394z" />
<glyph unicode="&#xe911;" d="M412.612 754.872c-6.090 3.274-9.186 10.326-7.506 17.032 20.062 80.126 67.4 144.176 127.342 181.658-0.474 0.296-0.94 0.606-1.416 0.9-11.988 7.384-26.302 7.384-38.288 0-63.548-39.16-113.144-108.096-131.498-194.394 32.068-15.308 59-36.822 81.746-63.328 7.056 7.164 14.332 13.85 21.96 20.144-15.642 14.83-33.006 27.596-52.34 37.988z" />
<glyph unicode="&#xe912;" d="M738.39 767.606c-7.3 9.010-18.422 12.916-29.748 10.438-46.008-10.034-92.158-36.496-129.308-79.836 33.764-34.274 58.308-76.262 72.838-121.966l0.072-0.184 0.96 0.39 0.452-0.82c41.060 22.648 87.608 33.094 134.632 30.158l1.052-0.066 0.038 1.054c2.228 60.392-15.88 117.512-50.988 160.832z" />
<glyph unicode="&#xe913;" d="M626.45 705.532c31.2 33.85 68.064 56.43 105.598 67.99-6.704 4.674-14.996 6.362-23.404 4.522-46.008-10.034-92.158-36.496-129.308-79.836 33.764-34.274 58.308-76.262 72.838-121.966l0.072-0.184 0.96 0.39 0.452-0.82c10.96 6.046 22.322 11.192 33.968 15.478-13.784 36.982-34.302 71.148-61.142 100.24-3.692 4.002-3.724 10.182-0.034 14.186z" />
<glyph unicode="&#xe914;" d="M315.134 778.046c-11.328 2.478-22.446-1.43-29.748-10.438-33.832-41.746-53.27-97.806-50.95-161.886 50.038 3.152 95.946-8.132 136.78-30.698 15.286 48.126 39.978 89.386 73.224 123.186-36.518 42.672-82.566 69.642-129.306 79.836z" />
<glyph unicode="&#xe915;" d="M326.506 763.494c3 3.702 6.654 6.528 10.694 8.418-7.316 2.444-14.68 4.522-22.066 6.134-11.328 2.478-22.446-1.43-29.748-10.438-33.832-41.746-53.27-97.806-50.95-161.886 14.012 0.882 27.69 0.594 41.034-0.718-1.524 62.662 17.804 117.484 51.036 158.49z" />
<glyph unicode="&#xe916;" d="M371.85 577.020c-49.288 27.226-105.354 36.656-158.792 28.452-12.628-1.94-23.314-10.046-28.586-21.682-37.702-83.226-26.876-180.080 28.254-252.764 80.462-106.086 209.932-106.168 245.144-92.632-94.446 84.404-123.564 220.38-86.020 338.626z" />
<glyph unicode="&#xe917;" d="M839.304 583.79c-5.272 11.638-15.958 19.744-28.586 21.682-54.084 8.302-110.212-1.654-158.052-28.044l-0.738-0.408 0.256-0.804c36.43-114.63 9.746-252.012-86.274-337.824 11.756-4.52 35.028-5.628 47.284-5.626 179.774 0.006 300.82 186.102 226.11 351.024z" />
<glyph unicode="&#xe918;" d="M633.314 233.636c-11.002 0.898-16.008 14.106-8.432 22.132 81.37 86.208 103.044 211.486 68.982 318.662v0c-0.474 1.506 0.182 3.136 1.566 3.894l0.628 0.342c30.792 16.986 62.75 25.882 97.654 28.764-48.716 4.038-98.204-6.37-141.048-30.002l-0.738-0.408 0.256-0.804c36.43-114.63 9.746-252.012-86.274-337.824 11.756-4.518 35.028-5.628 47.284-5.626 6.9 0 13.7 0.306 20.418 0.844l-0.296 0.026z" />
<glyph unicode="&#xe919;" d="M253.846 331.024c-55.13 72.684-65.956 169.538-28.254 252.764 5.272 11.638 15.96 19.744 28.586 21.682 5.656 0.868 11.346 1.496 17.052 1.968-19.44 1.612-38.974 0.98-58.172-1.968-12.628-1.94-23.314-10.046-28.586-21.682-37.702-83.226-26.876-180.080 28.254-252.764 67.056-88.41 168.138-103.192 220.344-97.832-54.32 4.848-127.066 29.064-179.224 97.832z" />
<glyph unicode="&#xe91a;" d="M619.84 78.718l-48.094 159.838c-0.652 0.194-1.298 0.384-1.938 0.594 0.006 0.004 1.37 1.262 1.376 1.266l-0.702 2.344c-35.696-29.086-83.102-27.774-117.188 0l-0.702-2.344c0.046-0.042 1.332-1.226 1.376-1.268-0.652-0.21-1.282-0.396-1.938-0.592l-47.526-157.95c-10.322-34.304-3.984-70.464 17.388-99.216 45.172-60.764 136.564-60.080 180.79-0.59 21.090 28.374 27.346 64.062 17.158 97.918z" />
<glyph unicode="&#xe91b;" d="M463.012-18.61c-21.372 28.75-27.71 64.912-17.388 99.216l43.286 143.86c-12.678 3.362-24.818 9.496-35.616 18.294l-0.702-2.344c0.046-0.042 1.332-1.226 1.376-1.268-0.652-0.21-1.282-0.396-1.938-0.592l-47.526-157.95c-10.322-34.304-3.984-70.464 17.388-99.216 27.154-36.526 71.002-50.818 111.274-43.51-26.784 4.86-52.146 19.286-70.154 43.51z" />
<glyph unicode="&#xe91c;" d="M531.030 739.334c-11.628 7.164-26.656 7.164-38.286 0-163.628-100.828-187.064-356.734-45.73-493.716 36.376-35.256 93.368-35.258 129.748 0 141.54 137.18 117.624 393.056-45.732 493.716z" />
<glyph unicode="&#xe91d;" d="M488.134 245.618c-140.92 136.58-118.016 391.376 44.314 492.81-0.476 0.298-0.938 0.612-1.418 0.906-11.628 7.164-26.656 7.164-38.286 0-163.628-100.828-187.064-356.734-45.73-493.716 23.564-22.838 55.776-30.864 85.434-24.112-16.126 3.67-31.5 11.694-44.314 24.112z" />
<glyph unicode="&#xe91e;" d="M549.727 715.766c-13.391 9.102-31.742 5.82-42.875-5.93l-56.453-59.602c-10.391-10.969-28.844-5.578-31.687 9.266l-8.406 43.805c-4.922 25.703 2.82 52.203 20.82 71.195l32.195 34c11.695 12.336 13.461 32 2.352 44.859-12.789 14.805-35.172 15.039-48.273 1.187l-7.273-7.68c-9.5-10.031-26.375-5.102-28.977 8.469l-5.148 26.844c-9.773 50.953-50.961 86.414-88.281 76-37.32-10.406-54.203-62.070-36.187-110.726l9.492-25.625c4.797-12.961-7.086-25.906-20.406-22.242l-8.531 2.344c-15.609 4.297-33.016-2.398-39.75-17.117-8.594-18.758 1.812-39.875 20.852-45.109l46.922-12.898c25.234-6.945 45.578-25.602 54.664-50.141l15.484-41.828c5.25-14.172-7.742-28.344-22.312-24.336l-79.148 21.766c-15.609 4.297-33.008-2.398-39.75-17.117-8.594-18.758 1.812-39.875 20.852-45.109l128.57-35.352c20.18-5.547 36.461-20.484 43.727-40.109l8.195-22.141c5.852-15.797-8.633-31.586-24.875-27.117l-19.016 5.227c-15.609 4.297-33.008-2.398-39.75-17.117-8.586-18.758 1.82-39.867 20.852-45.102l54.523-17.023c47.352-14.781 83.984-52.555 97.312-100.328l-0.016 0.039c-13.32 47.758-1.547 99.008 31.281 136.164l36.625 41.461c11.687 12.336 13.461 32 2.344 44.859-12.789 14.805-35.164 15.039-48.273 1.187l-14.75-15.578c-11.586-12.227-32.148-6.219-35.32 10.328l-4.445 23.187c-3.945 20.555 2.25 41.758 16.648 56.953l91.703 96.812c13.578 14.32 11.555 37.773-5.508 49.375z" />
<glyph unicode="&#xe91f;" d="M287.719 958.18c-37.32-10.414-54.203-62.070-36.187-110.726l9.492-25.625c4.797-12.961-7.086-25.914-20.406-22.25l-8.531 2.352c-15.609 4.289-33.016-2.398-39.75-17.117-8.594-18.766 1.812-39.875 20.852-45.109l46.922-12.906c25.234-6.937 45.578-25.602 54.664-50.141l15.484-41.828c5.25-14.172-7.742-28.336-22.312-24.328l-79.148 21.766c-15.609 4.297-33.008-2.398-39.75-17.117-8.594-18.758 1.812-39.875 20.852-45.109l128.57-35.352c20.18-5.555 36.461-20.484 43.727-40.117l8.195-22.133c5.852-15.797-8.633-31.586-24.875-27.117l-19.016 5.227c-15.609 4.289-33.008-2.398-39.75-17.117-8.586-18.758 1.82-39.875 20.852-45.109l54.523-17.016c47.328-14.781 83.945-52.523 97.289-100.273z" />
<glyph unicode="&#xe920;" d="M562.883-28.155c-8.648-2.414-17.617 2.641-20.031 11.289l-109.187 391.398c-2.414 8.648 2.641 17.617 11.289 20.023 8.648 2.414 17.609-2.641 20.023-11.289l109.187-391.398c2.414-8.648-2.633-17.617-11.281-20.023z" />
<glyph unicode="&#xe921;" d="M499.234 260.454l-16.844-60.578 21.648-77.609c6.047 11.859 14.672 22.023 25.492 29.609z" />
<glyph unicode="&#xe922;" d="M833.101 580.211c-6.758 14.711-24.156 21.391-39.766 17.086l-79.133-21.828c-14.57-4.023-27.578 10.133-22.344 24.305l15.453 41.844c9.070 24.547 29.398 43.227 54.625 50.187l45.141 12.453c16.391 4.523 28.062 20.437 25.203 37.195-3.297 19.281-22.328 31.055-40.711 25.969l-10.195-2.812c-13.32-3.68-25.219 9.266-20.43 22.227l9.469 25.641c17.977 48.672 1.047 100.312-36.281 110.695-37.328 10.375-78.484-25.117-88.219-76.078l-5.125-26.844c-2.586-13.57-19.453-18.516-28.969-8.492l-6.086 6.414c-11.148 11.75-29.5 15.016-42.883 5.898-17.047-11.617-19.055-35.070-5.469-49.391l33.5-35.305c18.016-18.984 25.781-45.477 20.875-71.18l-8.367-43.812c-2.836-14.852-21.281-20.258-31.68-9.289l-56.5 59.547c-11.148 11.742-29.5 15.008-42.883 5.891-17.047-11.617-19.055-35.062-5.461-49.391l91.773-96.726c14.414-15.187 20.625-36.383 16.703-56.945l-4.43-23.187c-3.164-16.547-23.719-22.578-35.312-10.352l-13.57 14.305c-11.148 11.742-29.5 15.008-42.883 5.898-17.055-11.625-19.055-35.070-5.469-49.398l37.875-42.75c32.891-37.133 44.727-88.398 31.437-136.195l0.008 0.047c13.281 47.766 49.852 85.555 97.164 100.391l52.781 16.555c16.391 4.523 28.070 20.437 25.203 37.195-3.297 19.281-22.328 31.047-40.711 25.961l-20.68-5.703c-16.242-4.484-30.734 11.297-24.898 27.094l8.18 22.148c7.25 19.641 23.516 34.586 43.703 40.148l128.539 35.461c19.039 5.25 29.422 26.367 20.82 45.125z" />
<glyph unicode="&#xe923;" d="M734.133 923.164c-37.328 10.383-78.484-25.109-88.219-76.070l-5.125-26.844c-2.586-13.578-19.453-18.523-28.969-8.5l-6.086 6.422c-11.148 11.742-29.5 15.008-42.883 5.891-17.047-11.617-19.055-35.070-5.461-49.391l33.492-35.305c18.016-18.984 25.781-45.477 20.875-71.18l-8.367-43.812c-2.828-14.844-21.273-20.25-31.68-9.289l-56.5 59.547c-11.148 11.75-29.5 15.016-42.875 5.898-17.055-11.617-19.062-35.070-5.469-49.391l91.773-96.734c14.414-15.18 20.625-36.383 16.703-56.937l-4.43-23.195c-3.156-16.539-23.719-22.57-35.312-10.352l-13.57 14.305c-11.148 11.75-29.5 15.016-42.875 5.898-17.055-11.617-19.062-35.070-5.469-49.391l37.867-42.758c32.875-37.117 44.711-88.351 31.453-136.125z" />
<glyph unicode="&#xe924;" d="M459.789-63.405c-8.648 2.406-13.711 11.367-11.305 20.016l108.867 391.492c2.406 8.648 11.367 13.711 20.016 11.312 8.648-2.406 13.711-11.367 11.305-20.016l-108.867-391.492c-2.406-8.656-11.359-13.711-20.016-11.312z" />
<glyph unicode="&#xe925;" d="M295.773 134.578c53.68 154.914-24.805 258.742-21.844 346.453l-183.25-460.352c76.164-30.32 171.133 15.898 205.094 113.898z" />
<glyph unicode="&#xe926;" d="M19.969 244.367c67.469 149.422 195.836 170.914 253.961 236.664l-183.25-460.352c-76.156 30.313-113.391 129.156-70.711 223.688z" />
<glyph unicode="&#xe927;" d="M90.68 20.68c-33.852 13.477-34.352 97.703 5.906 193.195 63.633 150.945 134.547 195.313 177.344 267.156-18.289-81.602 2.742-162.563-54.766-315.953-36.383-97.031-94.633-157.875-128.484-144.398z" />
<glyph unicode="&#xe928;" d="M886.344 642.68c-116.602 91.352-230.164 123.742-337.391 96.383-172.008-43.906-272.961-226.578-300.047-281.953-4.148-8.484-0.289-18.672 8.383-22.406 8.063-3.469 17.422-0.125 21.328 7.734 25.297 50.922 121.867 224.727 278.641 264.664 96.789 24.609 200.664-5.781 308.695-90.422 7.195-5.648 17.563-4.359 23.195 2.805 5.625 7.195 4.367 17.563-2.805 23.195z" />
<glyph unicode="&#xe929;" d="M703.328 738.297c-6.336-9.813-12.367-19.797-18.156-29.758 18.453-4.016 37.055-9.938 55.867-17.508 2.516 6.383 5.578 12.539 9.602 18.078 2.359 3.734 5.141 7.188 8.125 10.469-18.633 7.813-37.055 14.078-55.438 18.719z" />
<glyph unicode="&#xe92a;" d="M793.344 117.68c-7.422 163.781-118.734 231.227-148.422 313.805v-495.484c81.969 0 153.117 78.070 148.422 181.68z" />
<glyph unicode="&#xe92b;" d="M496.5 117.68c7.422 163.781 118.734 231.227 148.422 313.805v-495.484c-81.977 0-153.117 78.070-148.422 181.68z" />
<glyph unicode="&#xe92c;" d="M644.922-64c-36.438 0-68.055 78.070-65.969 181.68 3.297 163.781 52.773 231.227 65.969 313.805 13.188-82.578 62.664-150.023 65.961-313.805 2.086-103.609-29.531-181.68-65.961-181.68z" />
<glyph unicode="&#xe92d;" d="M1007.016 933.273c-3.484 8.438-13.156 12.422-21.563 8.953-232.969-96.242-357.047-366.5-357.047-524.578v-19.195c0-9.125 7.391-16.516 16.516-16.516s16.516 7.391 16.516 16.516v19.195c0 145.078 119.867 404.5 336.633 494.063 8.43 3.484 12.43 13.125 8.945 21.563z" />
<glyph unicode="&#xe92e;" d="M1024.789 926.969c0-18.242-14.789-33.031-33.031-33.031s-33.031 14.789-33.031 33.031 14.789 33.031 33.031 33.031 33.031-14.789 33.031-33.031z" />
<glyph unicode="&#xe92f;" d="M909.18 629.68c0-18.242-14.789-33.031-33.031-33.031s-33.031 14.789-33.031 33.031 14.789 33.031 33.031 33.031c18.242 0 33.031-14.789 33.031-33.031z" />
<glyph unicode="&#xe930;" glyph-name="cheese" d="M1010.959 632.802l-288.857 262.662c-9.899 8.999-24.050 11.559-36.453 6.621l-663.609-264.037c-14.272-5.679-22.987-19.914-21.929-34.919-0.047-0.746-0.112-1.483-0.112-2.233v-149.569c0-19.317 15.653-34.97 34.97-34.97 65.762 0 119.252-53.499 119.252-119.257s-53.49-119.266-119.252-119.266c-19.317 0-34.97-15.653-34.97-34.97v-116.459c0-19.317 15.653-34.97 34.97-34.97h953.971c19.317 0 34.97 15.653 34.97 34.97v574.491c0 0.48-0.047 0.951-0.075 1.431 0.098 1.068 0.163 2.14 0.163 3.231 0 11.013-5.092 20.833-13.041 27.244zM691.202 829.026l207.297-188.502h-681.047l473.75 188.502zM953.971 61.374h-884.032v49.765c87.672 16.45 154.222 93.58 154.222 185.961s-66.55 169.506-154.222 185.956v87.532h884.032v-509.214zM858.531 401.791c0-25.841-20.949-46.79-46.79-46.79s-46.79 20.949-46.79 46.79c0 25.841 20.949 46.79 46.79 46.79s46.79-20.949 46.79-46.79zM405.936 358.969c0-26.884-21.794-48.678-48.678-48.678s-48.678 21.794-48.678 48.678c0 26.884 21.794 48.678 48.678 48.678s48.678-21.794 48.678-48.678zM767.311 236.471c0-36.695-29.748-66.443-66.443-66.443s-66.443 29.748-66.443 66.443c0 36.695 29.748 66.443 66.443 66.443s66.443-29.748 66.443-66.443zM512.506 182.035c0-30.425-24.664-55.089-55.089-55.089s-55.089 24.664-55.089 55.089c0 30.425 24.664 55.089 55.089 55.089s55.089-24.664 55.089-55.089zM630.387 449.103c0-31.787-25.769-57.556-57.556-57.556s-57.556 25.769-57.556 57.556c0 31.787 25.769 57.556 57.556 57.556s57.556-25.769 57.556-57.556z" />
<glyph unicode="&#xe931;" d="M1000.174 325.6c-90.4 280-376 273.6-443.2 516l3.2-24c-6.4 28-12 56.8-14.4 87.2 2.4-22.4 6.4-43.2 11.2-62.4l-13.6 108.8c0 1.6 0 3.2 0 4v0 0.8l-20-4-44 3.2c0-0.8 0-3.2 0-11.2h-0.8c0 0 0-2.4 0-5.6v-0.8c0 0 0 0 0 0.8 0 3.2 0 5.6 0 5.6h-0.8l-12.8-102.4-0.8 1.6c-66.4-243.2-351.2-236.8-441.6-516.8-79.2-246.4 156-429.6 337.6-320.8 0 0 0 0 0.8 0v-1.6c-0.8-0.8-1.6-3.2-2.4-3.2 43.2-38.4 96-56 152-64h0.8c56 8 108.8 25.6 152 64-0.8 0.8 0.8 3.2 0 4 0.8-0.8-0.8 0.8 0 0 183.2-108.8 416.8 75.2 336.8 320.8zM467.374 837.6l-0.8 3.2c5.6 20 9.6 44 11.2 68.8-2.4-24.8-5.6-48.8-10.4-72z" />
<glyph unicode="&#xe932;" d="M479.374 955.2v0.8l-0.8-4h0.8c0 0.8 0 1.6 0 3.2z" />
<glyph unicode="&#xe933;" d="M244.174-37.6c-51.2 0-101.6 17.6-144.8 52-70.4 56-129.6 168-82.4 313.6 47.2 146.4 144.8 215.2 240 281.6 88 61.6 170.4 120 202.4 235.2 8 28.8 12 60 13.6 93.6 0 4.8 4 8 8 8 4.8 0 8-4 8-8-0.8-35.2-5.6-67.2-13.6-97.6-32.8-121.6-118.4-180.8-208-244-92.8-64.8-188-132-233.6-273.6-44-137.6 11.2-243.2 77.6-296 72-57.6 165.6-64.8 244-18.4 4 2.4 8.8 0.8 11.2-2.4 2.4-4 0.8-8.8-2.4-11.2-40-22.4-80-32.8-120-32.8z" />
<glyph unicode="&#xe934;" d="M479.374 934.4v0c-4.8 0-8 4-8 8 0 3.2 0 6.4 0 8.8 0 4.8 3.2 8 8 8 4 0 8-3.2 8-8 0-3.2 0-6.4 0-9.6 0-4-4-7.2-8-7.2z" />
<glyph unicode="&#xe935;" d="M778.574-38.4c-40 0-80 11.2-116.8 32.8-4 2.4-4.8 7.2-2.4 11.2s7.2 4.8 11.2 2.4c78.4-46.4 172-39.2 244.8 19.2 66.4 53.6 122.4 159.2 77.6 296-45.6 141.6-141.6 208-234.4 272.8-90.4 63.2-175.2 122.4-208.8 243.2-0.8 4 1.6 8.8 5.6 9.6s8.8-1.6 9.6-5.6c32-115.2 114.4-172.8 202.4-234.4 95.2-66.4 192.8-134.4 240-280.8 46.4-144.8-12-256.8-83.2-313.6-43.2-34.4-94.4-52.8-145.6-52.8z" />
<glyph unicode="&#xe936;" d="M557.774 833.6c-3.2 0-6.4 2.4-8 5.6-5.6 20.8-9.6 42.4-12 66.4-0.8 4 2.4 8 7.2 8.8s8-2.4 8.8-7.2c2.4-22.4 6.4-44 11.2-63.2 0.8-4-1.6-8.8-5.6-9.6 0-0.8-0.8-0.8-1.6-0.8z" />
<glyph unicode="&#xe937;" d="M544.174 917.6c-4 0-7.2 3.2-8 7.2 0 2.4 0 5.6-0.8 8 0 4.8 3.2 8 8 8v0c4 0 8-3.2 8-8 0-2.4 0-4.8 0-7.2 1.6-3.2-1.6-7.2-7.2-8 0.8 0 0.8 0 0 0z" />
<glyph unicode="&#xe938;" d="M557.774 833.6c-4 0-7.2 2.4-8 6.4v0l-13.6 110.4c-0.8 4 2.4 8 7.2 8.8s8-2.4 8.8-7.2l13.6-110.4c0.8-4-2.4-8-6.4-8.8-0.8 0.8-1.6 0.8-1.6 0.8z" />
<glyph unicode="&#xe939;" d="M511.374-64h-0.8c-59.2 8.8-112 18.4-156 58.4-84.8 76-123.2 208-101.6 352.8 8 57.6 43.2 120.8 82.4 193.6 44 80 93.6 171.2 118.4 275.2 10.4 40.8 16 81.6 16.8 122.4 0 4.8 4 8 8 8 4.8 0 8-4 8-8-0.8-41.6-7.2-84-17.6-125.6-25.6-105.6-76-197.6-120-278.4-39.2-72-72.8-133.6-80.8-188.8-20-140 16-266.4 96.8-338.4 40.8-36 90.4-46.4 146.4-54.4 58.4 8.8 106.4 17.6 147.2 53.6 80.8 72 116.8 199.2 96 340-8 54.4-42.4 116.8-81.6 188-44.8 80.8-96 173.6-121.6 280-0.8 4 1.6 8.8 5.6 9.6s8.8-1.6 9.6-5.6c25.6-104.8 76-195.2 120-276 40-72.8 75.2-136 83.2-193.6 21.6-146.4-16.8-279.2-100.8-354.4-44-39.2-96.8-49.6-156-57.6-0.8-0.8-0.8-0.8-1.6-0.8z" />
<glyph unicode="&#xe93a;" d="M560.974 809.6c-4 0-7.2 2.4-8 6.4-7.2 30.4-12.8 60.8-15.2 90.4-0.8 6.4-0.8 12.8-1.6 19.2 0 2.4 0 4.8-0.8 8 0 4.8 3.2 8 8 8v0c4 0 8-3.2 8-8 0-2.4 0-4.8 0-7.2 0-6.4 0.8-12.8 1.6-19.2 2.4-28.8 7.2-58.4 14.4-88 0.8-4-1.6-8.8-5.6-9.6 0 0-0.8 0-0.8 0z" />
<glyph unicode="&#xe93b;" d="M479.374 944c-4.8 0-8 3.2-8 8s3.2 8 8 8h64.8c4.8 0 8-3.2 8-8s-3.2-8-8-8h-64.8z" />
<glyph unicode="&#xe93c;" d="M472.974 653.6c-0.8 0-0.8 0-1.6 0-4 0.8-7.2 4.8-6.4 9.6 6.4 36.8 11.2 70.4 15.2 103.2 0.8 4 4.8 7.2 8.8 7.2 4-0.8 7.2-4.8 7.2-8.8-4-32.8-8.8-67.2-15.2-104.8-0.8-4-4-6.4-8-6.4z" />
<glyph unicode="&#xe93d;" d="M420.174 359.2v0c-4.8 0.8-8 4-8 8.8 4.8 52 16 108.8 28.8 174.4l6.4 32.8c0.8 4 4.8 7.2 9.6 6.4 4-0.8 7.2-4.8 6.4-9.6l-6.4-32.8c-12.8-64.8-24.8-120.8-28.8-172.8 0-4-3.2-7.2-8-7.2z" />
<glyph unicode="&#xe93e;" d="M595.374 103.2c-0.8 0-0.8 0-1.6 0-4 0.8-7.2 4.8-6.4 8.8 4.8 31.2 8 64.8 9.6 100 0 4.8 4 8 8 8 4.8 0 8-4 8-8-1.6-36-4.8-70.4-10.4-101.6 0-4-3.2-7.2-7.2-7.2z" />
<glyph unicode="&#xe93f;" d="M604.974 341.6c-4 0-8 3.2-8 7.2-3.2 55.2-15.2 116.8-29.6 187.2l-2.4 10.4c-7.2 35.2-14.4 72-21.6 111.2-0.8 4 2.4 8.8 6.4 9.6s8.8-2.4 9.6-6.4c7.2-39.2 14.4-75.2 21.6-110.4l2.4-10.4c14.4-72 27.2-133.6 30.4-189.6-0.8-4.8-4-8-8.8-8.8v0z" />
<glyph unicode="&#xe940;" d="M542.574 729.6c-4 0-7.2 3.2-8 7.2-11.2 80.8-16 149.6-16 215.2 0 4.8 3.2 8 8 8v0c4.8 0 8-3.2 8-8 0-65.6 5.6-133.6 16-213.6 0.8-4-2.4-8.8-7.2-8.8-0.8 0-0.8 0-0.8 0z" />
<glyph unicode="&#xe941;" d="M184.174 25.6c-2.4 0-4.8 0.8-6.4 2.4-63.2 73.6-84 185.6-55.2 299.2 0.8 4 5.6 7.2 9.6 5.6 4-0.8 7.2-5.6 5.6-9.6-27.2-109.6-8-216 52-285.6 3.2-3.2 2.4-8-0.8-11.2-0.8-0.8-3.2-0.8-4.8-0.8z" />
<glyph unicode="&#xe942;" d="M168.974 421.6c-1.6 0-2.4 0-4 0.8-4 2.4-5.6 7.2-3.2 10.4 20.8 40.8 47.2 76.8 82.4 114.4 3.2 3.2 8 3.2 11.2 0s3.2-8 0-11.2c-34.4-36-60-71.2-80-110.4-0.8-2.4-3.2-4-6.4-4z" />
<glyph unicode="&#xe943;" d="M903.374 176.8h-0.8c-4 0.8-7.2 4.8-7.2 8.8 5.6 44.8 2.4 91.2-9.6 138.4-16 64.8-42.4 119.2-80 168-2.4 3.2-2.4 8.8 1.6 11.2 3.2 2.4 8.8 2.4 11.2-1.6 39.2-50.4 65.6-107.2 82.4-173.6 12-48.8 16-97.6 10.4-144 0-4.8-4-7.2-8-7.2z" />
<glyph unicode="&#xe944;" d="M937.732 571.743c18.005-44.161 20.48-80.303 6.509-94.281-5.886-5.886-15.764-8.877-29.361-8.877-50.219 0-143.67 42.784-239.187 138.301-56.553 56.518-100.194 118.402-122.915 174.27-17.967 44.196-20.442 80.303-6.471 94.277 5.886 5.886 15.764 8.88 29.33 8.88 50.254 0 143.705-42.75 239.221-138.301 56.515-56.518 100.16-118.409 122.874-174.27zM815.854 605.888c12.495 12.46-9.018 54.178-47.982 93.176-38.998 38.96-80.716 60.442-93.176 47.978-12.495-12.495 8.984-54.212 47.982-93.176 38.964-38.995 80.681-60.473 93.176-47.978z" />
<glyph unicode="&#xe945;" d="M626.095 557.286c81.473-81.438 171.688-137.234 245.895-153.687-62.714-53.558-166.491-120.505-304.516-134.924-134.652-14.081-200.016-74.141-230.478-118.788l-115.308 115.308c44.437 30.806 103.949 97.065 115.859 234.096 12.009 138.301 80.234 242.487 134.687 305.067 3.404-15.73 8.536-32.286 15.589-49.6 26.166-64.338 75.284-134.453 138.273-197.473z" />
<glyph unicode="&#xe946;" d="M1002.687 598.177c29.361-72.145 26.989-131.382-6.333-167.489-13.183-17.245-161.982-204.629-421.576-231.752-167.592-17.52-194.165-115.545-194.409-116.544-3.063-12.257-12.495-21.891-24.645-25.23-3.094-0.861-6.23-1.274-9.362-1.274-9.156 0-18.105 3.614-24.783 10.257l-30.875 30.878-22.924-22.924c14.839-34.937 7.848-76.933-20.755-105.154-17.895-17.658-41.58-27.364-66.741-27.364-0.241 0-0.482 0-0.723 0-25.437 0.207-49.255 10.292-67.085 28.431-15.971 16.212-24.92 36.761-26.882 57.864-21.788 2.341-41.889 12.047-57.447 27.88-36.792 37.38-36.313 97.754 1.070 134.583 17.623 17.386 41.094 26.917 66.221 26.917 0.275 0 0.516 0 0.792 0 13.458-0.103 26.71-3.063 38.861-8.467l21.926 21.926-18.931 18.931c-9.018 9.053-12.908 22.201-9.328 34.489 3.542 12.223 12.976 21.444 25.368 24.27 6.746 1.993 99.268 32.386 113.549 196.953 22.339 257.051 209.241 405.196 231.304 421.821 19.103 17.83 45.504 27.261 76.657 27.261 80.165 0 190.823-60.855 288.783-158.815 63.027-63.003 112.11-133.155 138.27-197.449zM944.241 477.462c13.975 13.978 11.496 50.119-6.509 94.281-22.717 55.861-66.359 117.752-122.877 174.27-95.516 95.551-188.967 138.301-239.221 138.301-13.562 0-23.444-2.995-29.33-8.88-13.975-13.975-11.496-50.082 6.471-94.277 22.721-55.864 66.362-117.752 122.915-174.27 95.516-95.516 188.967-138.301 239.187-138.301 13.599 0 23.478 2.991 29.364 8.877zM871.993 403.596c-74.21 16.453-164.426 72.248-245.895 153.687-62.993 63.024-112.107 133.138-138.27 197.469-7.056 17.313-12.185 33.87-15.589 49.6-54.453-62.58-122.677-166.766-134.687-305.067-11.909-137.031-71.422-203.29-115.859-234.096l115.308-115.308c30.462 44.647 95.826 104.707 230.478 118.788 138.022 14.422 241.799 81.373 304.513 134.928zM198.285 103.764l42.85 42.815-34.52 34.524-42.165-42.13c-6.574-6.574-15.489-10.254-24.783-10.254-0.034 0-0.103 0-0.138 0-9.362 0.034-18.312 3.786-24.851 10.464-4.926 4.991-11.841 7.882-19.003 7.948-0.069 0-0.138 0-0.207 0-3.889 0-11.121-0.895-17.038-6.746-9.879-9.707-9.982-25.643-0.275-35.487 4.681-4.788 10.946-7.435 17.623-7.469 0.069 0 0.138 0 0.207 0 6.609 0 12.808 2.544 17.558 7.194 13.803 13.558 35.966 13.389 49.562-0.413 6.712-6.815 10.089-15.73 10.089-24.611 0-9.053-3.514-18.105-10.464-24.955-9.844-9.703-9.982-25.605-0.275-35.487 4.678-4.75 10.946-7.435 17.623-7.469 6.746-0.069 12.976 2.513 17.723 7.194 9.844 9.707 9.982 25.643 0.275 35.487-13.489 13.737-13.417 35.766 0.21 49.397z" />
<glyph unicode="&#xe947;" d="M767.872 699.063c38.964-38.998 60.476-80.716 47.982-93.176-12.495-12.495-54.212 8.984-93.176 47.978-38.998 38.964-60.476 80.681-47.982 93.176 12.46 12.464 54.178-9.018 93.176-47.978z" />
<glyph unicode="&#xe948;" d="M304.601 93.18c0 0-413.768 165.52-103.446 382.731 310.322 217.227 475.827-134.467 475.827-134.467s141.981-443.246-82.76-382.731c-94.654 25.503-289.621 134.467-289.621 134.467z" />
<glyph unicode="&#xe949;" d="M674.706 326.432c456.637 207.5 334.438 355.296 334.438 355.296s0 310.79-417.385 170.056c-417.385-140.75-335.966-340.112-335.966-340.112v0z" />
<glyph unicode="&#xe94a;" d="M340.268 168.473c0 0-283.027 113.22-70.757 261.826 212.286 148.591 325.49-91.988 325.49-91.988s97.117-303.214-56.602-261.811c-64.755 17.428-198.131 91.973-198.131 91.973z" />
<glyph unicode="&#xe94b;" d="M374.127 222.129c0 0-141.389 56.571-35.355 130.788 106.049 74.233 162.605-45.955 162.605-45.955s48.512-151.474-28.278-130.773c-32.346 8.698-98.972 45.94-98.972 45.94z" />
<glyph unicode="&#xe94c;" d="M423.979 182.035c-6.064 0-12.549 0.904-19.314 2.728-32.658 8.823-91.708 41.138-103.041 47.436-13.328 5.55-81.56 36.384-87.608 88.543-3.414 29.603 13.063 57.366 48.995 82.51 26.953 18.862 53.905 28.434 80.125 28.434 76.836 0 115.434-80.172 117.039-83.586 0.436-0.92 0.811-1.871 1.122-2.822 7.685-24.053 30.663-105.441 3.040-143.322-9.384-12.845-23.71-19.922-40.359-19.922zM343.136 384.921c-16.43 0-34.357-6.719-53.297-19.985-11.691-8.168-31.053-24.1-29.353-38.831 2.463-21.263 42.214-43.975 59.969-51.084 0.935-0.374 1.839-0.795 2.728-1.294 17.833-9.977 69.432-37.272 93.641-43.804 7.701-2.073 9.338-0.857 9.338-0.857 8.309 6.157 5.783 53.375-8.886 100.266-4.178 7.997-30.897 55.589-74.139 55.589z" />
<glyph unicode="&#xe94d;" d="M502.546 80.413c-10.070 0-21.029 1.59-32.58 4.692-64.116 17.257-187.5 85.285-202.2 93.454-16.571 6.843-151.459 65.457-162.246 158.77-5.783 50.055 23.897 98.271 88.232 143.306 49.93 34.95 99.377 52.674 146.938 52.674 139.128 0 210.166-147.593 213.127-153.86 0.421-0.935 0.795-1.855 1.107-2.837 6.345-19.829 60.593-195.871 9.462-265.926-14.451-19.798-35.838-30.273-61.84-30.273zM340.689 486.543c-37.771 0-78.192-14.872-120.126-44.225-49.166-34.42-72.238-67.92-68.59-99.611 6.719-58.036 99.455-107.281 134.623-121.342 0.935-0.359 1.839-0.795 2.728-1.278 1.309-0.733 131.583-73.344 192.8-89.837 7.592-2.042 14.451-3.071 20.421-3.071 14.17 0 20.312 5.924 24.069 11.068 27.888 38.208 5.331 155.964-15.713 222.481-6.532 12.923-66.704 125.816-170.212 125.816z" />
<glyph unicode="&#xe94e;" d="M570.59-39.167c-13.749 0-28.823 2.182-44.802 6.485-93.345 25.129-275.108 125.597-293.674 135.917-20.515 8.433-215.933 92.004-231.163 223.65-7.966 68.902 33.905 135.979 124.444 199.363 71.146 49.806 141.342 75.059 208.607 75.059 196.619 0 297.587-209.807 301.78-218.724 0.421-0.935 0.795-1.855 1.107-2.837 9.119-28.465 87-280.985 15.417-379.084-19.018-26.064-47.265-39.829-81.715-39.829zM334.001 554.54c-57.491 0-118.645-22.401-181.779-66.61-75.387-52.767-110.648-105.13-104.818-155.699 10.429-90.102 150.446-164.943 203.525-186.159 0.935-0.359 1.839-0.811 2.728-1.294 1.917-1.076 193.517-107.858 284.289-132.301 36.524-9.836 61.263-5.207 76.571 15.729 48.527 66.47 1.294 263.214-21.653 335.685-8.278 16.524-99.268 190.649-258.864 190.649z" />
<glyph unicode="&#xe94f;" d="M612.367 334.211c-8.901 0-17.397 5.097-21.31 13.718-5.347 11.754-0.14 25.628 11.614 30.959 262.356 119.222 321.032 214.842 332.661 261.218 9.197 36.711-6.173 57.366-6.828 58.223-3.118 4.069-5.097 9.431-5.097 14.575 0 0.873-1.403 95.792-74.311 147.827-66.517 47.467-171.568 47.498-312.224 0.062-208.077-70.164-283.946-153.439-310.962-210.945-26.407-56.213-11.395-96.681-10.741-98.38 4.599-11.956-1.247-25.519-13.172-30.242-11.91-4.692-25.363 0.92-30.211 12.783-0.966 2.369-23.336 58.941 10.787 133.579 44.178 96.556 158.349 176.479 339.348 237.524 156.042 52.596 275.404 50.367 354.843-6.672 79.767-57.288 91.427-150.43 93.126-177.866 10.273-16.882 20.764-48.746 11.489-89.011-22.572-97.803-143.478-197.134-359.364-295.248-3.133-1.419-6.423-2.104-9.649-2.104z" />
<glyph unicode="&#xe950;" d="M736.951 397.033c-2.541 0-5.129 0.405-7.67 1.294-12.206 4.24-18.66 17.568-14.404 29.759 19.174 55.137-16.352 122.667-16.711 123.337-0.514 0.951-0.966 1.933-1.356 2.946-75.324 199.394-419.084 169.401-422.576 169.090-12.72-1.341-24.256 8.215-25.472 21.091-1.216 12.845 8.231 24.256 21.091 25.456 15.542 1.497 381.422 33.173 470.184-197.71 6.298-12.159 43.586-88.871 19.003-159.565-3.367-9.665-12.409-15.698-22.089-15.698z" />
<glyph unicode="&#xe951;" glyph-name="mascarpone-cheese" d="M1002.667 202.667h-46.4l-104.589 540.378c-13.566 70.086-75.226 120.956-146.611 120.956h-386.133c-71.388 0-133.047-50.869-146.613-120.956l-59.166-305.711h-27.821c-47.053 0-85.333-38.281-85.333-85.333v-42.667c0-41.745 17.216-79.541 44.922-106.667h-23.588c-11.782 0-21.333-9.551-21.333-21.333 0-82.342 66.991-149.333 149.333-149.333h725.333c82.342 0 149.333 66.991 149.333 149.333 0 11.782-9.551 21.333-21.333 21.333zM318.933 821.333h386.133c50.63 0 94.409-35.821 104.512-85.333h-62.912c-35.29 0-64-28.71-64-64v-149.333c0-11.618-4.587-22.479-12.917-30.583-8.324-8.098-19.315-12.356-30.963-12.066-22.857 0.627-41.453 20.356-41.453 43.983v126.667c0 11.782-9.551 21.333-21.333 21.333s-21.333-9.551-21.333-21.333c0-11.618-4.587-22.479-12.917-30.583-8.324-8.1-19.309-12.363-30.963-12.066-22.857 0.627-41.453 20.356-41.453 43.983v20c0 35.29-28.71 64-64 64h-190.91c10.101 49.513 53.882 85.333 104.51 85.333zM206.159 693.333h199.174c11.763 0 21.333-9.57 21.333-21.333v-20c0-46.515 37.212-85.378 82.95-86.633 16.066-0.459 31.535 3.516 45.050 11.351v-52.719c0-46.515 37.212-85.378 82.95-86.633 23.264-0.668 45.235 7.934 61.886 24.134 16.657 16.207 25.83 37.929 25.83 61.165v149.333c0 11.763 9.57 21.333 21.333 21.333h71.174l94.967-490.667h-445.73c27.706 27.125 44.922 64.922 44.922 106.667v42.667c0 47.053-38.281 85.333-85.333 85.333h-42.667c-54.253 0-101.845-29.088-128-72.48-21.523 35.712-57.574 61.737-99.902 69.828l50.061 258.652zM368.864 294.197c-8.331 8.331-21.839 8.331-30.172 0l-61.359-61.361v55.127c0 0.006 0 0.011 0 0.017s0 0.011 0 0.017c0 58.816 47.851 106.667 106.667 106.667h42.667c23.526 0 42.667-19.14 42.667-42.667v-42.667c0-58.816-47.851-106.667-106.667-106.667h-55.164l61.361 61.359c8.331 8.333 8.331 21.843 0 30.174zM42.667 309.333v42.667c0 23.526 19.14 42.667 42.667 42.667h42.667c58.816 0 106.667-47.851 106.667-106.667 0-0.006 0-0.011 0-0.017s0-0.011 0-0.017v-55.127l-61.359 61.361c-8.331 8.331-21.839 8.331-30.172 0s-8.331-21.839 0-30.172l61.361-61.361h-55.164c-58.816 0-106.667 47.851-106.667 106.667zM874.667 74.667h-725.333c-51.511 0-94.611 36.706-104.525 85.333h934.381c-9.911-48.627-53.011-85.333-104.523-85.333z" />
<glyph unicode="&#xe952;" glyph-name="mozzarella" d="M938.667 960h-853.333c-47.053 0-85.333-38.281-85.333-85.333 0-40.335 28.128-74.223 65.801-83.078l83.639-836.378c1.090-10.906 10.266-19.211 21.227-19.211h682.667c10.961 0 20.137 8.305 21.227 19.211l83.639 836.378c37.673 8.855 65.801 42.743 65.801 83.078 0 47.053-38.281 85.333-85.333 85.333zM618.667-21.333c-46.436 0-86.532 29.244-101.015 72.356 23.036 26.285 37.015 60.698 37.015 98.31 0 6.869-0.467 13.632-1.37 20.258 18.654 14.519 41.485 22.409 65.37 22.409 58.816 0 106.667-47.851 106.667-106.667s-47.851-106.667-106.667-106.667zM834.027-21.333h-110.948c27.706 27.125 44.922 64.922 44.922 106.667 0 82.342-66.991 149.333-149.333 149.333-27.908 0-54.784-7.686-78.089-22.035-23.866 50.784-75.518 86.035-135.245 86.035-82.342 0-149.333-66.991-149.333-149.333s66.991-149.333 149.333-149.333c28.608 0 55.356 8.083 78.091 22.089 7.563-16.124 17.997-30.878 30.771-43.422h-324.222l-53.331 533.297h226.025c0.017-82.327 67.002-149.297 149.333-149.297s149.316 66.97 149.333 149.297h226.025l-53.331-533.297zM512 149.333c0-58.816-47.851-106.667-106.667-106.667s-106.667 47.851-106.667 106.667 47.851 106.667 106.667 106.667c50.355 0 92.672-35.076 103.806-82.078 0.113-0.629 0.256-1.257 0.427-1.875 1.594-7.324 2.434-14.921 2.434-22.714zM405.333 512c0 58.816 47.851 106.667 106.667 106.667s106.667-47.851 106.667-106.667-47.851-106.667-106.667-106.667-106.667 47.851-106.667 106.667zM891.625 554.63h-236.489c-18.391 61.641-75.599 106.703-143.136 106.703s-124.745-45.062-143.136-106.703h-236.489l-23.469 234.703h806.187l-23.469-234.703zM938.667 832h-853.333c-23.526 0-42.667 19.14-42.667 42.667s19.14 42.667 42.667 42.667h853.333c23.526 0 42.667-19.14 42.667-42.667s-19.14-42.667-42.667-42.667z" />
<glyph unicode="&#xe953;" d="M491.582 356.904c-22.388 3.132-40.174 6.7-61.498 10.704-6.444 1.21-10.932 7.142-10.372 13.676 2.708 31.592 10.306 65.886 21.914 93.986-30.408 0-50.788 0-84.294 0l-51.958-334.418c-3.618-11.208-5.596-23.154-5.596-35.566 0-63.894 51.798-115.692 115.692-115.692 78.266 0 134.26 76.406 110.096 151.256l-33.984 216.054z" />
<glyph unicode="&#xe954;" d="M340.948 105.286c0 12.412 1.976 24.358 5.594 35.566l51.958 334.418c-12.422 0-25.324 0-41.168 0l-51.958-334.418c-3.618-11.208-5.594-23.154-5.594-35.566 0-63.894 51.798-115.692 115.692-115.692 7.106 0 14.024 0.638 20.718 1.838-54.136 9.664-95.242 56.942-95.242 113.854z" />
<glyph unicode="&#xe955;" d="M799.668 100.144l-37.974 241.406c-30.75 0-54.234 0-84.984 0l-37.974-241.406c-17.644-54.656 23.208-110.548 80.466-110.548 57.202 0 98.128 55.842 80.466 110.548z" />
<glyph unicode="&#xe956;" d="M679.904 100.144l37.974 241.406c-13.12 0-26.294 0-41.168 0l-37.974-241.406c-17.644-54.656 23.206-110.548 80.466-110.548 7.142 0 14.030 0.872 20.58 2.5-45.954 11.432-75.32 60.212-59.878 108.048z" />
<glyph unicode="&#xe957;" d="M801.002 648.484c-62.512 151.384-211.572 257.924-385.53 257.924-218.126 0-397.122-167.498-415.406-380.89-0.766-8.938 5.374-17.056 14.192-18.712 138.258-25.962 282.634-36.94 423.256-35.644 58.192 140.876 213.012 219.168 363.488 177.322z" />
<glyph unicode="&#xe958;" d="M44.522 516.544c17.664 211.006 185.32 378.154 393.342 389.258-7.416 0.392-14.88 0.606-22.394 0.606-218.128 0-397.122-167.498-415.406-380.89-0.766-8.938 5.374-17.056 14.192-18.712 12.608-2.368 25.282-4.568 37.984-6.688-5.15 3.538-8.276 9.752-7.718 16.426z" />
<glyph unicode="&#xe959;" d="M926.992 579.24c-185.468 171.898-490.69 55.774-512.422-197.868-0.61-7.11 4.21-13.462 11.208-14.774 186.522-35.026 401.89-34.942 588.312 0.276 6.132 1.158 10.372 6.754 9.868 13.014-6.166 76.314-40.604 147.112-96.966 199.352z" />
<glyph unicode="&#xe95a;" d="M456.826 369.21c13.952 169.918 144.736 280.68 285.664 290.764-156.008 10.916-312.58-99.574-327.92-278.602-0.61-7.11 4.21-13.462 11.208-14.774 10.832-2.034 21.772-3.938 32.788-5.736-1.328 2.454-1.988 5.332-1.74 8.348z" />
<glyph unicode="&#xe95b;" d="M221.866 780.45c-71.75-59.6-109.17-135.224-127.928-188.168-15.808-44.618-21.364-80.59-23.114-95.194 10.164-1.596 20.358-3.102 30.57-4.546 3.264 27.496 25.288 168.7 140.204 264.156 6.558 5.448 7.458 15.18 2.010 21.74s-15.182 7.46-21.742 2.012z" />
<glyph unicode="&#xe95c;" d="M206.45 578.632c-7.67 3.722-16.906 0.518-20.628-7.154-0.602-1.242-14.284-29.948-22.716-86.712 10.236-1.136 20.482-2.21 30.742-3.2 7.632 50.378 19.52 75.936 19.774 76.478 3.692 7.664 0.488 16.874-7.172 20.588z" />
<glyph unicode="&#xe95d;" d="M932.016 454.246c-3.446 7.79-12.544 11.308-20.338 7.874-7.796-3.434-11.332-12.542-7.91-20.34 0.176-0.4 16.362-37.854 19.766-88.992 10.284 1.276 20.498 2.668 30.662 4.14-4.036 55.674-21.38 95.51-22.18 97.318z" />
<glyph unicode="&#xe95e;" d="M762.314 898.934c-144.529 0-261.686-117.156-261.686-261.686 0-43.086 10.603-83.617 29.044-119.462 28.737 10.853 59.74 17.058 92.281 17.058 101.443 0 189.229-57.839 232.642-142.224 98.927 37.343 169.405 132.639 169.405 244.628 0 144.529-117.176 261.686-261.686 261.686z" />
<glyph unicode="&#xe95f;" d="M774.281 737.578c-31.83 0-57.627 18.057-57.627 40.339s25.798 40.339 57.627 40.339 57.627-18.057 57.627-40.339z" />
<glyph unicode="&#xe960;" d="M774.281 718.368c-43.086 0-76.836 26.144-76.836 59.548s33.75 59.548 76.836 59.548 76.836-26.163 76.836-59.548c0-10.603-8.586-19.209-19.209-19.209s-19.209 8.606-19.209 19.209c0 9.989-16.424 21.13-38.418 21.13s-38.418-11.161-38.418-21.13c0-9.97 16.424-21.13 38.418-21.13 10.623 0 19.209-8.606 19.209-19.209s-8.606-19.209-19.209-19.209z" />
<glyph unicode="&#xe961;" d="M360.248 273.159c0 108.57 66.137 201.677 160.3 241.286-17.807 127.203-126.742 225.189-258.843 225.189-144.549 0.019-261.705-117.137-261.705-261.667s117.156-261.686 261.686-261.686c35.959 0 70.209 7.28 101.405 20.4-1.69 11.948-2.843 24.069-2.843 36.478z" />
<glyph unicode="&#xe962;" d="M274.844 557.012c-31.83 0-57.627 18.057-57.627 40.339s25.798 40.339 57.627 40.339 57.627-18.057 57.627-40.339z" />
<glyph unicode="&#xe963;" d="M274.844 537.803c-43.086 0-76.836 26.163-76.836 59.548s33.75 59.548 76.836 59.548 76.836-26.163 76.836-59.548c0-10.603-8.586-19.209-19.209-19.209s-19.209 8.606-19.209 19.209c0 9.989-16.424 21.13-38.418 21.13s-38.418-11.161-38.418-21.13 16.424-21.13 38.418-21.13c10.623 0 19.209-8.606 19.209-19.209s-8.606-19.209-19.209-19.209z" />
<glyph unicode="&#xe964;" d="M901.868 273.159c0-152.482-123.611-276.093-276.093-276.093s-276.093 123.611-276.093 276.093c0 152.482 123.611 276.093 276.093 276.093s276.093-123.611 276.093-276.093z" />
<glyph unicode="&#xe965;" d="M453.547 187.467c-7.914 0-15.329 4.937-18.095 12.812-7.741 21.898-11.66 44.815-11.66 68.154 0 10.603 8.586 19.209 19.209 19.209s19.209-8.606 19.209-19.209c0-18.959 3.189-37.592 9.451-55.361 3.554-10.008-1.71-20.976-11.698-24.511-2.132-0.749-4.284-1.095-6.416-1.095z" />
<glyph unicode="&#xe966;" d="M627.812 64.375c-59.010 0-115.12 25.567-153.961 70.171-6.973 8.010-6.128 20.131 1.863 27.104 7.972 6.954 20.15 6.166 27.104-1.863 31.541-36.209 77.105-56.974 124.994-56.974 0.019 0 0.019 0 0.019 0 10.623 0 19.228-8.606 19.228-19.209s-8.586-19.209-19.209-19.209c0-0.019-0.019-0.019-0.038-0.019z" />
<glyph unicode="&#xe967;" d="M639.818 372.604c-31.83 0-57.627 18.057-57.627 40.339s25.798 40.339 57.627 40.339c31.83 0 57.627-18.057 57.627-40.339z" />
<glyph unicode="&#xe968;" d="M639.818 353.395c-43.086 0-76.836 26.144-76.836 59.548s33.75 59.548 76.836 59.548 76.836-26.163 76.836-59.548c0-10.603-8.586-19.209-19.209-19.209s-19.209 8.606-19.209 19.209c0 9.989-16.424 21.13-38.418 21.13s-38.418-11.161-38.418-21.13c0-9.97 16.424-21.13 38.418-21.13 10.623 0 19.209-8.606 19.209-19.209s-8.606-19.209-19.209-19.209z" />
<glyph unicode="&#xe969;" d="M812.938 741.422c-36.038-5.34-141.078-28.718-179.796-123.060-6.494-15.792-11.112-33.584-13.256-53.602h-215.772c-14.864 139.594-150.974 170.436-193.052 176.662-5.258 0.784-7.566 7.648-3.958 11.896 16.514 19.442 33.336 32.842 49.974 41.604 93.722 49.274 182.228-48.86 182.228-48.86-10.596 113.39 35.192 180.146 63.726 210.082 2.638 2.762 5.834 3.918 8.968 3.856 3.134 0.062 6.33-1.092 8.968-3.856 28.534-29.936 74.322-96.692 63.726-210.082 0 0 122.73 136.090 232.202 7.256 3.608-4.248 1.3-11.112-3.958-11.896z" />
<glyph unicode="&#xe96a;" d="M812.938 741.422c-28.616-4.246-100.794-19.874-148.666-73.394-42.902 30.718-95.474 48.8-152.274 48.8-24.536 0-48.282-3.37-70.794-9.674-11.788-3.3-24.366 0.594-32.22 9.984-47.432 56.728-122.046 73.286-151.908 77.784 93.722 49.274 182.228-48.86 182.228-48.86-10.596 113.39 35.192 180.146 63.726 210.082 2.638 2.762 5.834 3.918 8.968 3.856 3.134 0.062 6.33-1.092 8.968-3.856 28.534-29.936 74.322-96.692 63.726-210.082 0 0 122.73 136.090 232.204 7.256 3.608-4.248 1.3-11.112-3.958-11.896z" />
<glyph unicode="&#xe96b;" d="M765.17 411.724v-222.534c0-40.718-9.752-79.27-27.028-113.432-4.66-9.256-9.896-18.204-15.628-26.78-22.080-32.966-51.664-60.53-86.28-80.178-10.288-5.834-21.028-10.988-32.162-15.36-18.102-7.134-37.212-12.226-57.026-14.988-11.46-1.628-23.17-2.452-35.046-2.452-32.43 0-63.498 6.184-92.074 17.442-11.132 4.37-21.874 9.524-32.162 15.36-34.616 19.648-64.2 47.212-86.28 80.178-5.732 8.576-10.968 17.524-15.628 26.78-17.276 34.162-27.028 72.714-27.028 113.432v222.532c0 41.48 10.122 80.734 27.998 115.37 4.742 9.216 10.040 18.102 15.854 26.616 22.368 32.822 52.262 60.2 87.146 79.58 10.412 5.772 21.276 10.844 32.492 15.132 27.914 10.658 58.158 16.494 89.682 16.494 11.876 0 23.586-0.824 35.048-2.432 18.946-2.66 37.234-7.422 54.634-14.060 11.216-4.288 22.080-9.36 32.492-15.132 20.844-11.566 39.892-25.998 56.634-42.738 11.278-11.278 21.502-23.626 30.512-36.842 5.814-8.514 11.112-17.4 15.854-26.616 17.874-34.638 27.996-73.892 27.996-115.372z" />
<glyph unicode="&#xe96c;" d="M765.17 411.724v-222.534c0-40.718-9.752-79.27-27.028-113.432-4.66-9.256-9.896-18.204-15.628-26.78-22.080-32.966-51.664-60.53-86.28-80.178-10.288-5.834-21.028-10.988-32.162-15.36-18.102-7.134-37.212-12.226-57.026-14.988-19.812 2.762-38.924 7.854-57.026 14.988-11.132 4.37-21.874 9.524-32.162 15.36-34.616 19.648-64.2 47.212-86.28 80.178-5.732 8.576-10.968 17.524-15.628 26.78-17.276 34.162-27.028 72.714-27.028 113.432v222.534c0 41.48 10.122 80.734 27.998 115.37 4.742 9.216 10.040 18.102 15.854 26.616 22.368 32.822 52.262 60.2 87.146 79.58 10.412 5.772 21.276 10.844 32.492 15.132 17.4 6.638 35.688 11.4 54.634 14.060 18.946-2.66 37.234-7.422 54.634-14.060 11.216-4.288 22.080-9.36 32.492-15.132 20.844-11.566 39.892-25.998 56.634-42.738 11.278-11.278 21.502-23.626 30.512-36.842 5.814-8.514 11.112-17.4 15.854-26.616 17.876-34.636 27.998-73.89 27.998-115.37z" />
<glyph unicode="&#xe96d;" d="M765.17 411.682l-80.598 55.662c-8.192 5.66-8.192 17.766 0 23.424l52.6 36.324c-4.742 9.216-10.040 18.102-15.854 26.616l-72.832-50.286c-4.868-3.36-11.308-3.36-16.176 0l-76.136 52.572c-8.196 5.66-8.196 17.766 0 23.424l77.998 53.868c-10.412 5.772-21.276 10.844-32.492 15.132l-81.594-56.346c-4.868-3.362-11.308-3.362-16.176 0l-81.594 56.346c-11.216-4.288-22.080-9.36-32.492-15.132l77.998-53.868c8.192-5.66 8.192-17.768 0-23.424l-76.136-52.572c-4.868-3.36-11.308-3.36-16.176 0l-72.832 50.286c-5.814-8.514-11.112-17.4-15.854-26.616l52.6-36.324c8.192-5.66 8.196-17.766 0-23.424l-80.598-55.662v-42.552l80.598-55.662c8.192-5.66 8.192-17.766 0-23.424l-80.598-55.662v-42.552l80.596-55.66c8.196-5.66 8.192-17.768-0.002-23.424l-53.566-36.984c4.66-9.256 9.896-18.204 15.628-26.78l74.028 51.11c4.868 3.36 11.308 3.36 16.176 0l76.136-52.572c8.196-5.66 8.196-17.768 0-23.424l-80.060-55.292c10.288-5.834 21.028-10.988 32.162-15.36l83.986 57.996c4.868 3.362 11.308 3.362 16.176 0l83.986-57.996c11.132 4.37 21.874 9.524 32.162 15.36l-80.060 55.292c-8.196 5.66-8.192 17.768 0 23.424l76.136 52.572c4.868 3.36 11.306 3.36 16.176 0l74.028-51.11c5.732 8.576 10.968 17.524 15.628 26.78l-53.566 36.984c-8.196 5.658-8.196 17.768-0.002 23.424l80.596 55.66v42.552l-80.598 55.662c-8.192 5.66-8.192 17.766 0 23.424l80.598 55.662v42.552zM520.088 543.342l76.134-52.572c8.196-5.66 8.196-17.768 0-23.426l-76.134-52.572c-4.868-3.36-11.308-3.36-16.176 0l-76.134 52.572c-8.196 5.66-8.196 17.768 0 23.426l76.134 52.572c4.868 3.36 11.306 3.36 16.176 0zM596.222 290.044l-76.134-52.572c-4.868-3.36-11.308-3.36-16.176 0l-76.134 52.572c-8.196 5.66-8.196 17.768 0 23.426l76.134 52.572c4.868 3.36 11.308 3.36 16.176 0l76.134-52.572c8.196-5.662 8.196-17.77 0-23.426zM299.394 402.118l76.118 52.572c4.868 3.362 11.308 3.362 16.176 0l76.134-52.572c8.196-5.66 8.196-17.768 0-23.426l-76.134-52.572c-4.868-3.362-11.308-3.36-16.176 0l-76.118 52.572c-8.194 5.662-8.194 17.768 0 23.426zM299.394 224.818l76.118 52.572c4.868 3.362 11.308 3.362 16.176 0l76.134-52.572c8.196-5.66 8.196-17.768 0-23.426l-76.134-52.572c-4.868-3.362-11.308-3.36-16.176 0l-76.118 52.572c-8.194 5.66-8.194 17.766 0 23.426zM503.912 60.17l-76.134 52.572c-8.196 5.66-8.196 17.768 0 23.426l76.134 52.572c4.868 3.36 11.308 3.36 16.176 0l76.134-52.572c8.196-5.66 8.196-17.768 0-23.426l-76.134-52.572c-4.87-3.362-11.308-3.362-16.176 0zM724.324 201.2l-75.838-52.378c-4.868-3.362-11.308-3.362-16.176 0l-76.134 52.572c-8.196 5.66-8.196 17.768 0 23.426l76.134 52.572c4.868 3.362 11.308 3.36 16.176 0l75.838-52.378c8.33-5.754 8.33-18.062 0-23.814zM632.31 326.122l-76.134 52.572c-8.196 5.66-8.196 17.768 0 23.426l76.134 52.572c4.868 3.362 11.308 3.36 16.176 0l75.838-52.378c8.33-5.752 8.33-18.060 0-23.812l-75.838-52.378c-4.868-3.362-11.308-3.364-16.176-0.002z" />
<glyph unicode="&#xe96e;" d="M328.926 358.306l-29.484 20.356c-8.218 5.674-8.218 17.814-0.002 23.49l29.734 20.538c0.598 14.040 2.37 27.79 5.196 41.15l-75.538-52.16v-42.552l70.096-48.408v37.586z" />
<glyph unicode="&#xe96f;" d="M329.070 180.902l-46.634 32.202 46.49 32.1v37.584l-70.096-48.408v-42.552l74.92-51.726c-2.66 13.256-4.246 26.884-4.68 40.8z" />
<glyph unicode="&#xe970;" d="M451.408 628.32l-29.090 20.102c-11.216-4.288-22.080-9.36-32.492-15.132l34.554-23.874c8.576 6.884 17.606 13.194 27.028 18.904z" />
<glyph unicode="&#xe971;" d="M387.766-31.2c10.288-5.834 21.028-10.988 32.162-15.36l29.502 20.37c-9.34 5.772-18.286 12.164-26.76 19.090l-34.904-24.1z" />
<glyph unicode="&#xe972;" d="M286.828 527.094l54.406-37.564c3.298 10.122 7.196 19.956 11.71 29.482l-50.262 34.698c-5.814-8.516-11.112-17.4-15.854-26.616z" />
<glyph unicode="&#xe973;" d="M285.858 75.758c4.66-9.256 9.896-18.204 15.628-26.78l50.552 34.904c-4.432 9.566-8.268 19.462-11.484 29.646l-54.696-37.77z" />
<glyph unicode="&#xe974;" d="M99.545 642.135c0 11.815 1.22 23.352 3.106 34.649l-79.115 59.332c-11.26 8.45-26.791-2.256-22.926-15.79l23.426-81.962c1.017-3.531 0.666-7.322-0.98-10.594l-17.713-35.407c-5.972-11.944 5.787-24.997 18.286-20.32l79.873 29.952c-2.533 13.035-3.957 26.421-3.957 40.14z" />
<glyph unicode="&#xe975;" d="M848.354 429.511h-536.184c-116.944 0-212.625 95.681-212.625 212.625v0c0 116.944 95.681 212.625 212.625 212.625h536.184c116.944 0 175.646-95.681 175.646-212.625v0c0-116.944-58.703-212.625-175.646-212.625z" />
<glyph unicode="&#xe976;" d="M1024 642.135c0-117.424-58.222-212.625-175.646-212.625s-175.646 95.2-175.646 212.625 58.222 212.625 175.646 212.625 175.646-95.2 175.646-212.625z" />
<glyph unicode="&#xe977;" d="M874.053 634.721c-7.969-0.148-14.514-7.728-14.514-16.936s6.564-16.307 14.514-15.864c7.821 0.425 14.052 8.006 14.052 16.918s-6.231 16.030-14.052 15.882z" />
<glyph unicode="&#xe978;" d="M761.325 595.654c-10.132-0.555-18.489-9.448-18.489-19.857s8.357-18.064 18.489-17.121c9.929 0.924 17.823 9.781 17.823 19.82s-7.895 17.713-17.823 17.158z" />
<glyph unicode="&#xe979;" d="M761.325 725.078c9.929-0.74 17.823 6.804 17.823 16.844 0 10.021-7.895 19.044-17.823 20.135-10.132 1.128-18.489-6.379-18.489-16.77s8.357-19.469 18.489-20.209z" />
<glyph unicode="&#xe97a;" d="M901.732 555.791c-7.47-0.832-13.626-8.745-13.626-17.657s6.157-15.235 13.626-14.126c7.34 1.091 13.201 8.967 13.201 17.602s-5.861 14.995-13.201 14.181z" />
<glyph unicode="&#xe97b;" d="M829.014 564.944c-17.75-1.646-32.652-19.007-32.652-38.716s14.902-33.188 32.652-30.23c17.102 2.847 30.507 20.005 30.507 38.42 0.018 18.415-13.405 32.116-30.507 30.525z" />
<glyph unicode="&#xe97c;" d="M844.526 735.857c16.548-1.535 29.527 11.944 29.527 30.063s-12.979 34.963-29.527 37.718c-17.158 2.866-31.561-10.428-31.561-29.804 0-19.358 14.403-36.387 31.561-37.977z" />
<glyph unicode="&#xe97d;" d="M761.325 651.121c0-20.412 15.993-36.387 35.037-35.684 18.323 0.684 32.652 16.64 32.652 35.684s-14.348 35-32.652 35.684c-19.044 0.703-35.037-15.254-35.037-35.684z" />
<glyph unicode="&#xe97e;" d="M908.388 729.94c-11.075 1.017-20.264-8.967-20.264-22.335s9.189-24.554 20.264-24.96c10.798-0.407 19.358 9.633 19.358 22.39s-8.56 23.906-19.358 24.905z" />
<glyph unicode="&#xe97f;" d="M329.365 103.419c-141.7 0-227.102 62.179-184.41 152.332 29.194 61.624 104.907 85.457 184.41 85.457s155.216-23.832 184.41-85.457c42.691-90.134-42.728-152.332-184.41-152.332z" />
<glyph unicode="&#xe980;" d="M296.103 223.358c-9.263 0-17.361-5.732-18.119-13.016-0.777-7.562 6.582-13.885 16.455-13.885s18.027 6.323 18.175 13.885c0.148 7.285-7.248 13.016-16.511 13.016z" />
<glyph unicode="&#xe981;" d="M285.897 287.219c0.499 4.881-5.269 8.745-12.887 8.745s-14.495-3.864-15.401-8.745c-0.924-5.029 4.807-9.226 12.813-9.226s14.958 4.197 15.475 9.226z" />
<glyph unicode="&#xe982;" d="M401.176 277.993c8.024 0 13.405 4.179 12.055 9.208-1.313 4.881-8.505 8.745-16.122 8.745s-13.072-3.864-12.166-8.745c0.924-5.011 8.209-9.208 16.233-9.208z" />
<glyph unicode="&#xe983;" d="M227.675 196.326c-9.873 0-19.894-6.527-22.464-14.828-2.662-8.634 3.661-15.882 14.255-15.882s20.8 7.248 22.76 15.882c1.867 8.32-4.678 14.828-14.551 14.828z" />
<glyph unicode="&#xe984;" d="M224.217 268.268c-16.492 0-33.077-9.171-37.256-21.152-4.474-12.776 6.712-23.777 25.238-23.777s35.592 11.001 37.958 23.777c2.219 11.981-9.448 21.152-25.94 21.152z" />
<glyph unicode="&#xe985;" d="M475.891 235.597c-4.974 12.702-22.52 22.39-39.474 22.39s-28.51-9.707-25.626-22.39c3.069-13.571 21.225-25.275 40.362-25.275s30.045 11.704 24.738 25.275z" />
<glyph unicode="&#xe986;" d="M328.348 287.219c-15.623 0-28.806-8.228-29.472-18.933-0.703-11.389 12.85-21.152 30.304-21.152s30.599 9.762 29.416 21.152c-1.109 10.705-14.625 18.933-30.248 18.933z" />
<glyph unicode="&#xe987;" d="M392.819 196.437c-14.828 0-25.811-9.855-24.498-22.631 1.387-13.553 15.919-25.127 32.374-25.127s27.16 11.574 24.091 25.127c-2.903 12.794-17.139 22.631-31.968 22.631z" />
<glyph unicode="&#xe988;" d="M329.365 103.419c-97.826 0-168.787 29.675-189.31 77.691-29.379-83.349 54.265-139.87 189.31-139.87s218.689 56.54 189.31 139.87c-20.541-48.016-91.484-77.691-189.31-77.691z" />
<glyph unicode="&#xe989;" d="M634.379 725.336h-341.272c-10.224 0-18.489 8.265-18.489 18.489s8.265 18.489 18.489 18.489h341.272c10.224 0 18.489-8.265 18.489-18.489s-8.283-18.489-18.489-18.489z" />
<glyph unicode="&#xe98a;" d="M666.495 780.804h-188.496c-10.224 0-18.489 8.265-18.489 18.489s8.265 18.489 18.489 18.489h188.496c10.224 0 18.489-8.265 18.489-18.489s-8.265-18.489-18.489-18.489z" />
<glyph unicode="&#xe98b;" d="M634.675 521.956h-207.374c-10.224 0-18.489 8.265-18.489 18.489s8.265 18.489 18.489 18.489h207.374c10.224 0 18.489-8.265 18.489-18.489s-8.265-18.489-18.489-18.489z" />
<glyph unicode="&#xe98c;" d="M666.495 466.489h-186.481c-10.224 0-18.489 8.265-18.489 18.489s8.265 18.489 18.489 18.489h186.481c10.224 0 18.489-8.265 18.489-18.489s-8.265-18.489-18.489-18.489z" />
<glyph unicode="&#xe98d;" d="M267.248 778.592h489.504v-380.192c0-0.014 0-0.031 0-0.048 0-135.173-109.579-244.752-244.752-244.752v0c-135.173 0-244.752 109.579-244.752 244.752 0 0.017 0 0.034 0 0.050v-0.002 380.192z" />
<glyph unicode="&#xe98e;" d="M538 664.848c-220-38.848-206.4-228.184-79.2-323.512s55.44-194.64-24.672-174.992c23.23-8.078 50.006-12.743 77.871-12.744h0.001c135.173 0 244.752 109.579 244.752 244.752 0 0.017 0 0.034 0 0.050v-0.002 380.192s1.248-74.896-218.752-113.744z" />
<glyph unicode="&#xe98f;" d="M756.752 778.592c0-40.436-109.579-73.216-244.752-73.216s-244.752 32.78-244.752 73.216c0 40.436 109.579 73.216 244.752 73.216s244.752-32.78 244.752-73.216z" />
<glyph unicode="&#xe990;" d="M512 153.6s-131.024-24-103.752-87.2c13.168-30.52 63.096-27.2 89.408-4.672 3.842 3.268 8.861 5.256 14.344 5.256s10.502-1.988 14.376-5.282l-0.032 0.026c26.312-22.536 76.24-25.84 89.408 4.672 27.272 63.2-103.752 87.2-103.752 87.2z" />
<glyph unicode="&#xe991;" d="M502.688 797.016c0-2.019-9.825-3.656-21.944-3.656s-21.944 1.637-21.944 3.656c0 2.019 9.825 3.656 21.944 3.656s21.944-1.637 21.944-3.656z" />
<glyph unicode="&#xe992;" d="M648.088 773.808c0-4.551-15.129-8.24-33.792-8.24s-33.792 3.689-33.792 8.24c0 4.551 15.129 8.24 33.792 8.24s33.792-3.689 33.792-8.24z" />
<glyph unicode="&#xe993;" d="M388.736 769.52c0-1.409-5.161-2.552-11.528-2.552s-11.528 1.143-11.528 2.552c0 1.409 5.161 2.552 11.528 2.552s11.528-1.143 11.528-2.552z" />
<glyph unicode="&#xe994;" d="M756.752 694c-7.732 0-14-6.268-14-14v0-281.6c-0.771-126.855-103.785-229.393-230.748-229.393s-229.977 102.538-230.748 229.32v338.473c45.144-29.96 138.352-45.424 230.744-45.424 128.584 0 258.752 29.96 258.752 87.2s-130.168 87.24-258.752 87.24c-25.864 0-51.376-1.176-75.824-3.512-7.083-0.758-12.552-6.703-12.552-13.925 0-7.732 6.268-14 14-14 0.428 0 0.851 0.019 1.27 0.057l-0.054-0.004c23.56 2.248 48.176 3.392 73.16 3.392 151.496 0 230.752-38.552 230.752-59.2s-79.248-59.2-230.752-59.2-230.752 38.552-230.752 59.2c0 8.376 14.112 22.808 53.872 35.904 5.627 1.903 9.605 7.135 9.605 13.296 0 7.735-6.27 14.005-14.005 14.005-1.574 0-3.087-0.26-4.499-0.738l0.099 0.029c-60.424-19.912-73.104-44.976-73.104-62.504v-380.216c0.155-142.291 115.018-257.702 257.085-258.743l0.099-0.001c20.56-3.912 78.512-20 92.28-45.752 1.761-3.229 2.796-7.073 2.796-11.159 0-3.922-0.954-7.62-2.642-10.877l0.062 0.132c-3.239-6.679-9.475-11.464-16.912-12.631l-0.128-0.017c-3.317-0.628-7.132-0.987-11.031-0.987-14.99 0-28.741 5.307-39.476 14.144l0.107-0.086c-6.338 5.192-14.525 8.339-23.448 8.339s-17.11-3.147-23.514-8.391l0.066 0.052c-10.631-8.746-24.382-14.050-39.372-14.050-3.898 0-7.712 0.359-11.412 1.045l0.384-0.059c-7.57 1.178-13.813 5.96-16.997 12.506l-0.059 0.134c-2.872 6.648-9.6 22.216 20.144 41.104 3.929 2.524 6.495 6.873 6.495 11.82 0 7.734-6.269 14.003-14.003 14.003-2.786 0-5.382-0.814-7.564-2.216l0.056 0.033c-43.408-27.568-37.952-59.352-30.84-75.832 6.788-14.78 20.086-25.56 36.119-28.747l0.321-0.053c5.053-1.195 10.855-1.88 16.817-1.88 0.093 0 0.185 0 0.278 0h-0.014c22.063 0.078 42.267 7.979 57.996 21.072l-0.148-0.12c1.423 1.143 3.251 1.835 5.24 1.835s3.817-0.692 5.256-1.847l-0.016 0.013c15.46-12.991 35.583-20.883 57.548-20.883 6.149 0 12.154 0.619 17.956 1.797l-0.576-0.098c16.354 3.24 29.652 14.020 36.311 28.486l0.129 0.314c3.073 6.415 4.868 13.944 4.868 21.893 0 8.91-2.256 17.294-6.227 24.611l0.135-0.272c-9.672 18.088-29.8 31.336-50.456 40.8 112.311 29.986 193.704 130.755 193.824 250.554v281.614c0 7.732-6.268 14-14 14v0z" />
<glyph unicode="&#xe995;" d="M383.376 826.896c0.911 0 1.802 0.085 2.665 0.246l-0.089-0.014 5.184 0.936c6.803 1.032 11.957 6.839 11.957 13.85 0 7.732-6.268 14-14 14-0.976 0-1.928-0.1-2.847-0.29l0.091 0.016-5.496-0.984c-6.564-1.243-11.462-6.933-11.462-13.768 0-7.732 6.268-14 14-14 0.002 0 0.004 0 0.006 0v0z" />
<glyph unicode="&#xe996;" d="M516.688 797.016c0 17.656-24.28 17.656-35.944 17.656s-35.952 0-35.952-17.656 24.28-17.664 35.952-17.664 35.944 0 35.944 17.664z" />
<glyph unicode="&#xe997;" d="M662.096 773.808c0 18.4-25.992 22.24-47.8 22.24s-47.792-3.856-47.792-22.24 25.992-22.24 47.792-22.24 47.8 3.856 47.8 22.24z" />
<glyph unicode="&#xe998;" d="M377.208 752.976c22.208 0 25.528 10.4 25.528 16.544s-3.32 16.544-25.528 16.544-25.528-10.4-25.528-16.544 3.32-16.544 25.528-16.544z" />
<glyph unicode="&#xe999;" d="M673.76 322.488c-2.047 1.24-4.521 1.973-7.166 1.973-5.092 0-9.548-2.718-11.998-6.782l-0.035-0.063c-20.487-34.706-50.234-62.035-85.861-79.023l-1.195-0.513c-4.868-2.264-8.183-7.113-8.183-12.736 0-7.734 6.269-14.003 14.003-14.003 2.11 0 4.112 0.467 5.906 1.303l-0.086-0.036c42.069 19.928 76.064 51.094 98.915 89.643l0.573 1.045c1.237 2.046 1.97 4.518 1.97 7.16 0 5.090-2.716 9.546-6.779 11.996l-0.063 0.035z" />
<glyph unicode="&#xe99a;" d="M686.4 338.872c6.113 0.001 11.31 3.92 13.218 9.382l0.030 0.098c2.248 6.592 3.2 10.624 3.336 11.064 0.162 0.8 0.255 1.719 0.255 2.66 0 7.732-6.268 14-14 14-6.354 0-11.719-4.233-13.43-10.033l-0.025-0.099c-0.080-0.312-0.864-3.44-2.608-8.544-0.477-1.35-0.752-2.907-0.752-4.528 0-7.724 6.255-13.987 13.975-14h0.001z" />
<glyph unicode="&#xe99b;" d="M515.104 233.598c-53.786-54.658-126.624-88.694-208.292-88.694-158.862 0-288.192 128.784-288.192 287.646v47.942c0 88.258 71.774 160.524 160.030 160.524h255.686l80.77-32.684v-374.734z" />
<glyph unicode="&#xe99c;" d="M419.944 672.046v-31.752l-64.718-15.98 15.584-63.922-16.18-15.98-48.040 31.962-47.992-31.962-16.006 15.98 15.884 63.922-64.020 15.98v31.752h112.034z" />
<glyph unicode="&#xe99d;" d="M370.834 208.826c-158.86 0-288.088 128.784-288.088 287.644v47.942c0 27.692 6.952 53.728 19.344 76.436-49.668-27.106-83.474-79.792-83.474-140.358v-47.942c0-158.862 129.33-287.646 288.192-287.646 81.668 0 160.712 34.036 208.292 88.694v13.904c-47.576-24.508-91.832-38.674-144.266-38.674z" />
<glyph unicode="&#xe99e;" d="M1009.52 432.55c0-158.862-128.684-287.646-287.548-287.646s-287.548 128.784-287.548 287.646v47.942c0 88.258 71.5 159.804 159.758 159.804 52.36 0 98.672-25.298 127.82-64.212 29.148 38.914 75.418 64.212 127.778 64.212 88.256 0 159.74-71.546 159.74-159.804v-47.942z" />
<glyph unicode="&#xe99f;" d="M546.134 432.55v47.942c0 68.614 43.356 126.956 104.074 149.604-17.446 6.578-36.278 10.2-56.040 10.2-88.256 0-159.742-71.546-159.742-159.804v-47.942c0-158.862 128.738-287.646 287.602-287.646 19.148 0 37.776 1.964 55.878 5.534-132.080 26.040-231.772 142.398-231.772 282.112z" />
<glyph unicode="&#xe9a0;" d="M690.018 225.556v79.152c0 17.652-14.31 31.962-31.962 31.962v0c-17.652 0-31.962 14.31-31.962 31.962v31.962c0 17.652 14.31 31.962 31.962 31.962v0c17.652 0 31.962 14.31 31.962 31.962v15.98c0 53.934-44.53 97.466-98.832 95.838-52.476-1.574-92.934-47.356-92.934-99.858 0 0-33.634-203.448 159.88-273.822 15.53-5.652 31.886 6.378 31.886 22.9z" />
<glyph unicode="&#xe9a1;" d="M532.454 476.47c0 50.488 37.45 94.644 86.992 99.364-4.034 0.39-8.114 0.618-12.278 0.494-52.476-1.574-92.932-47.358-92.932-99.858 0 0-33.634-203.448 159.88-273.822 5.868-2.134 11.848-1.73 17.026 0.476-192.14 70.788-158.688 273.346-158.688 273.346z" />
<glyph unicode="&#xe9a2;" d="M753.94 225.556v79.152c0 17.652 14.31 31.962 31.962 31.962v0c17.652 0 31.962 14.31 31.962 31.962v31.962c0 17.652-14.31 31.962-31.962 31.962v0c-17.652 0-31.962 14.31-31.962 31.962v15.98c0 53.934 44.53 97.466 98.832 95.838 52.476-1.574 92.934-47.356 92.934-99.858 0 0 33.634-203.448-159.88-273.822-15.53-5.652-31.886 6.378-31.886 22.9z" />
<glyph unicode="&#xe9a3;" d="M666.010 185.752c-4.446 0-8.906 0.764-13.178 2.316-106.264 38.646-146.86 115.904-162.206 173.914-15.22 57.536-9.158 106.92-7.882 115.704 0.634 61.284 48.828 112.376 107.978 114.15 30.46 0.914 59.184-10.238 80.986-31.396 21.812-21.166 33.826-49.562 33.826-79.948v-15.98c0-26.178-21.298-47.476-47.476-47.476-9.068 0-16.446-7.376-16.446-16.446v-31.962c0-9.068 7.376-16.446 16.446-16.446 26.178 0 47.476-21.298 47.476-47.476v-79.152c0-12.998-6.374-25.222-17.050-32.7-6.69-4.684-14.562-7.102-22.474-7.102zM594.15 560.858c-0.832 0-1.664-0.012-2.496-0.038-42.946-1.288-77.884-39.13-77.884-84.348v-1.274l-0.208-1.256c-0.074-0.464-7.696-49.186 7.346-105.078 19.756-73.406 67.71-124.422 142.53-151.63 3.292-1.198 5.952 0.138 7.242 1.042 1.148 0.804 3.82 3.126 3.82 7.284v79.152c0 9.068-7.376 16.446-16.446 16.446-26.178 0-47.476 21.298-47.476 47.476v31.962c0 26.178 21.298 47.476 47.476 47.476 9.068 0 16.446 7.376 16.446 16.446v15.98c0 21.924-8.666 42.408-24.404 57.68-15.13 14.676-34.916 22.68-55.946 22.68z" />
<glyph unicode="&#xe9a4;" d="M777.95 185.752c-7.914 0-15.784 2.418-22.474 7.106-10.676 7.478-17.050 19.7-17.050 32.7v79.152c0 26.178 21.298 47.476 47.476 47.476 9.070 0 16.446 7.376 16.446 16.446v31.962c0 9.068-7.376 16.446-16.446 16.446-26.178 0-47.476 21.298-47.476 47.476v15.98c0 30.386 12.012 58.782 33.826 79.948 21.806 21.158 50.536 32.314 80.986 31.396 59.15-1.774 107.344-52.866 107.978-114.15 1.276-8.784 7.338-58.17-7.882-115.704-15.346-58.010-55.942-135.27-162.206-173.914-4.274-1.558-8.734-2.32-13.178-2.32zM849.808 560.858c-21.032 0-40.818-8.002-55.95-22.688-15.736-15.272-24.404-35.758-24.404-57.68v-15.98c0-9.068 7.376-16.446 16.446-16.446 26.18 0 47.476-21.298 47.476-47.476v-31.962c0-26.178-21.298-47.476-47.476-47.476-9.068 0-16.446-7.376-16.446-16.446v-79.152c0-4.158 2.672-6.478 3.822-7.284 1.288-0.904 3.95-2.24 7.242-1.042 75.196 27.346 123.246 78.718 142.814 152.688 14.76 55.796 7.144 103.546 7.064 104.022l-0.208 1.256v1.274c0 45.222-34.938 83.060-77.884 84.348-0.832 0.032-1.666 0.044-2.496 0.044z" />
<glyph unicode="&#xe9a5;" d="M613.277 496.301l-21.586 23.567 22.882 20.958 21.586-23.567-22.882-20.958z" />
<glyph unicode="&#xe9a6;" d="M583.020 441.434l-29.526 12.238 11.881 28.666 29.526-12.238-11.881-28.666z" />
<glyph unicode="&#xe9a7;" d="M547.059 377.462l-1.347 31.004 31.933 1.387 1.347-31.004-31.933-1.387z" />
<glyph unicode="&#xe9a8;" d="M573.099 305.823l-14.323 27.527 28.353 14.754 14.323-27.527-28.353-14.754z" />
<glyph unicode="&#xe9a9;" d="M627.133 251.85l-24.613 18.894 19.46 25.351 24.613-18.894-19.46-25.351z" />
<glyph unicode="&#xe9aa;" d="M816.513 251.794l-19.452 25.362 24.622 18.885 19.452-25.362-24.622-18.885z" />
<glyph unicode="&#xe9ab;" d="M870.635 305.763l-28.345 14.762 14.333 27.521 28.345-14.762-14.333-27.521z" />
<glyph unicode="&#xe9ac;" d="M896.8 377.384l-31.928 1.403 1.362 30.999 31.928-1.403-1.362-30.999z" />
<glyph unicode="&#xe9ad;" d="M860.68 441.402l-11.87 28.674 29.533 12.225 11.87-28.674-29.533-12.225z" />
<glyph unicode="&#xe9ae;" d="M830.515 496.257l-22.875 20.967 21.597 23.562 22.875-20.967-21.597-23.562z" />
<glyph unicode="&#xe9af;" d="M848.876 655.808c-40.962 0-79.496-13.994-110.354-39.32v55.554h-31.030v-58.786c-31.646 27.078-72.502 42.55-114.86 42.55-29.582 0-57.468-7.276-81.994-20.062-23.886 11.732-49.494 17.682-76.304 17.682h-1.978v33.098h-109.64v80.682h-31.030v-80.678h-113.778v-33.118c-98.166-0.39-177.908-77.802-177.908-172.918v-47.942c0-167.492 136.79-303.756 304.924-303.756 78.002 0 153.15 29.396 208.784 81.146 54.238-49.968 126.696-80.55 206.194-80.55 167.68 0 304.096 135.998 304.096 303.162v47.942c0.002 96.668-78.558 175.314-175.122 175.314zM401.326 655.496v-3.124l-66.54-16.832 18.038-70.486-0.616-0.622-45.812 30.6-45.916-30.644-0.82 0.822 16.964 70.462-65.618 16.252v1.504h-2.068v2.068h192.388zM111.588 239.856c-51.946 51.66-80.556 120.094-80.556 192.694v47.942c0 78.248 66.22 141.906 147.618 141.906h22.496l38.1-9.438-13.816-57.384 31.096-31.138 49.868 33.278 49.884-33.32 30.966 31.336-14.68 57.356 36.796 9.31h24.976c15.588 0 30.684-2.458 45.142-7.31-38.88-32.188-63.67-80.572-63.67-134.598v-47.942c0-76.782 28.796-146.972 76.164-200.446-49.866-46.102-117.148-72.282-187.046-72.282-72.778 0.002-141.44 28.426-193.338 80.036zM992.97 432.55c0-150.054-122.498-272.132-273.066-272.132s-273.066 122.078-273.066 272.132v47.942c0 79.56 65.404 144.288 145.794 144.288 45.546 0 88.978-21.682 116.178-57.998l12.418-16.58 12.418 16.58c27.606 36.858 69.606 57.998 115.23 57.998 79.454 0 144.094-64.728 144.094-144.288v-47.942z" />
<glyph unicode="&#xe9b0;" d="M118.306 295.406c-33.402 44.456-51.058 97.366-51.058 153.222h31.032c0-49.648 15.502-95.52 44.834-134.556l-24.808-18.666z" />
<glyph unicode="&#xe9b1;" d="M186.286 232.642c-13.268 8.386-25.836 18.058-37.356 28.746l21.104 22.748c10.126-9.396 21.17-17.894 32.832-25.264l-16.58-26.23z" />
<glyph unicode="&#xe9b2;" d="M992.31 398.707c0-52.784-9.172-103.482-26.072-150.752-59.974-167.692-217.172-291.771-406.721-309.705-15.618-1.488-31.484-2.252-47.516-2.252-265.265 0-480.309 207.172-480.309 462.707 0 85.096 23.862 156.392 65.47 213.638 34.15 46.958 80.242 84.456 134.906 112.366 2.542 1.302 5.124 2.582 7.706 3.842 77.37 37.682 171.164 56.71 272.227 56.71 16.032 0 31.878-0.476 47.516-1.446 80.076-4.876 154.346-22.312 217.978-52.062 2.582-1.178 5.144-2.418 7.686-3.656 125.154-61.312 207.13-171.614 207.13-329.389z" />
<glyph unicode="&#xe9b3;" d="M992.31 398.707c0-52.784-9.172-103.482-26.072-150.752-77.204-117.014-207.462-198.35-358.151-212.606-15.618-1.488-31.484-2.252-47.516-2.252-265.265 0-480.309 207.172-480.309 462.707 0 42.27 5.888 81.13 16.9 116.54 34.15 46.958 80.242 84.456 134.906 112.366 78.814 40.226 175.48 60.554 279.931 60.554 16.032 0 31.878-0.476 47.516-1.446 83.32-5.082 160.358-23.738 225.662-55.718 125.158-61.316 207.134-171.618 207.134-329.393z" />
<glyph unicode="&#xe9b4;" d="M790.344 572.783l-107.388 96.376c-13.718 12.334-8.388 35.328 9.296 40.018l79.528 21.070c1.932 0.512 2.172 3.178 0.354 4.004-61.984 28.184-134.060 47.346-211.242 52.22l0.316 124.318c0 27.068-22.146 49.212-49.212 49.212v0c-27.066 0-49.21-22.144-49.21-49.21l-0.316-124.344c-77.598-4.928-149.48-24.060-211.654-52.654-3.668-1.686-3.104-7.072 0.828-7.982l67.722-15.7c18.49-4.276 24.048-28.448 9.358-40.7l-102.222-85.324c-9.4-7.83-1.198-23.16 10.33-19.276l199.59 67.432c12.334 4.152 25.576-3.078 29.048-15.866l35.162-129.638c2.996-11.012 18.304-10.888 21.114 0.186l32.58 128.336c3.408 13.47 17.54 20.866 30.224 15.846l194.632-77.162c11.388-4.528 20.334 10.576 11.162 18.838z" />
</font>
</defs>
</svg>
